当前位置: 首页 >> 欧美电影 >> 环太平洋[共2部合集][国英多音轨/简繁英字幕].Pacific.Rim.1-2.2013-2018.UHD.BluRay.2160p.2Audio.TrueHD.Atmos.7.1.x265.10b >> 正文

环太平洋[共2部合集][国英多音轨/简繁英字幕].Pacific.Rim.1-2.2013-2018.UHD.BluRay.2160p.2Audio.TrueHD.Atmos.7.1.x265.10b

2022年04月18日 15:02:28     电影发布:来源于网络     电影分类:欧美电影     评论(0)    

环太平洋[共2部合集][国英多音轨/简繁英字幕].Pacific.Rim.1 2.2013 2018.UHD.BluRay.2160p.2Audio.TrueHD.Atmos.7.1.x265.10b  欧美电影  第1张

◎译 名 环太平洋 / 悍战太平洋(港)

◎片 名 Pacific Rim

◎年 代 2013

◎产 地 美国

◎类 别 动作 / 科幻 / 冒险

◎语 言 英语 / 日语 / 粤语 / 汉语普通话 / 俄语

◎上映日期 2013-07-31(中国大陆) / 2013-07-12(美国)

◎IMDb链接 https://www.imdb.com/title/tt1663662/

◎豆瓣评分 7.7/10 (427962人评价)

◎豆瓣链接 https://movie.douban.com/subject/5323968/

◎片 长 131分钟

◎导 演 吉尔莫·德尔·托罗 Guillermo del Toro (id:1027182)

◎编 剧 特拉维斯·比彻姆 Travis Beacham (id:1324943)

吉尔莫·德尔·托罗 Guillermo del Toro (id:1027182)

◎演 员 查理·汉纳姆 Charlie Hunnam (id:1000024)

菊地凛子 Rinko Kikuchi (id:1014006)

伊德里斯·艾尔巴 Idris Elba (id:1049501)

查理·戴 Charlie Day (id:1004621)

朗·普尔曼 Ron Perlman (id:1002688)

罗伯特·卡辛斯基 Robert Kazinsky (id:1041498)

马克斯·马蒂尼 Max Martini (id:1088351)

伯恩·戈曼 Burn Gorman (id:1049809)

小克利夫顿·克林斯 Clifton Collins Jr. (id:1019033)

芦田爱菜 Mana Ashida (id:1274616)

迪亚哥·克莱特霍夫 Diego Klattenhoff (id:1323493)

希瑟·多克森 Heather Doerksen (id:1332272)

罗伯特·梅耶 Robert Maillet (id:1040613)

刘智福 Lance Luu (id:1330554)

刘智满 Mark Luu (id:1330552)

刘智堂 Charles Luu (id:1330553)

德里克·赫德 Derek Herd (id:1426397)

金永钢 Yonggang Jin (id:1427660)

路知行 Zhixing Lu (id:1329887)

塞巴斯蒂安·皮戈特 Sebastian Pigott (id:1274982)

马修·G·泰勒 Matthew G. Taylor (id:1456244)

林原惠美 Megumi Hayashibara (id:1002915)

布拉德·威廉姆·亨克 Brad William Henke (id:1002801)

拉里·乔·坎贝尔 Larry Joe Campbell (id:1074310)

圣地亚哥·塞古拉 Santiago Segura (id:1010740)

罗宾·托马斯 Robin Thomas (id:1156675)

罗伯特·莫尔斯 Robert Morse (id:1262284)

克拉拉·王 Clara Wong (id:1349164)

津成雨 Tsu-Ching Yu (id:1351480)

托马斯·图尔 Thomas Tull (id:1348364)

吉尔莫·德尔·托罗 Guillermo del Toro (id:1027182)

拉民·贾瓦迪 Ramin Djawadi (id:1302385)

汤姆·莫雷罗 Tom Morello (id:1133177)

凯特·霍利 Kate Hawley (id:1421062)

保罗·阿克里 Paolo Acri (id:1404816)

理查德·布拉夫 Richard Bluff (id:1306174)

龙子乔 Joe Ksander (id:1308172)

刘正 Zheng Liu (id:1420059)

刘士杨 Shiyang Liu (id:1446388)

杰森·史密斯 Jason Smith (id:1355130)

布拉德利·詹姆斯·艾伦 Bradley James Allan (id:1056473)

◎简 介

近未来,地球环境逐步恶化。神秘外星殖民者通过大洋底部的虫洞“缺口”将身形庞大、残冷迅猛、身藏剧毒的怪兽接连派往地球,有条不紊地实施着它们的殖民毁灭计划。为此,人类联手打造“贼鸥计划”,制造出与怪兽体型相当的机甲战士迎战,但随着怪兽渐次进化,机甲战士全面溃败,各国政要试图修筑偏于防守的“生命之墙”以阻挡侵略者的脚步,无奈很快遭遇挫折。在此危急关头,暗中仍推进“贼鸥计划”的斯特克·潘特考斯特将军(伊德瑞斯·艾尔巴 Idris Elba 饰)找回五年前曾遭受重大打击的“危险流浪者”驾驶员(查理·汉纳姆 Charlie Hunnam 饰),并通过严格选拔为他选择了新的搭档森麻子(菊地凛子 饰)。复活的“流浪者”即将与另外三台仅存的机甲战士迎战更强大的怪兽侵略者,同时寻找彻底扫除敌人的良机。

苍茫的大海之上,人类保卫之战接连而起……

◎获奖情况 (共16项)

第41届动画安妮奖 (2014)

最佳真人电影动画效果

最佳真人电影动画角色(提名)

第12届美国视觉效果协会奖 (2014)

最佳特效电影视觉效果(提名)

最佳真人电影CG动画角色(提名)

最佳真人电影CG背景(提名)

最佳电影虚拟摄影(提名)

└──维克托·舒尔茨 (id:1224763)

最佳电影模型(提名)

最佳真人电影模拟动画效果(提名)

第19届美国评论家选择电影奖 (2014)

最佳视觉效果(提名)

第17届好莱坞电影奖 (2013)

年度电影(提名)

└──吉尔莫·德尔·托罗 (id:1027182)

年度视觉效果

└──约翰·诺尔 (id:1288774)

第15届美国青少年选择奖 (2013)

最佳暑期动作片(提名)

第4届豆瓣电影鑫像奖 (2014)

鑫豆单元 最佳影片(外语)(提名)

鑫豆单元 最佳科幻/动作片(提名)

鑫豆单元 最佳配乐

豆渣单元 最渣女演员(外语)(提名)

└──菊地凛子 (id:1014006)

  1. 合集文件列表:

  2. 1.Pacific.Rim.2013.UHD.BluRay.2160p.2Audio.TrueHD.Atmos.7.1.x265.10bit.HDR-ALT.mkv 22.54GB

  3. 2.Pacific.Rim.Uprising.2018.UHD.BluRay.2160p.2Audio.TrueHD.Atmos.7.1.x265.10bit.HDR-ALT.mkv 22.01GB


复制代码

  1. ##### MediaInfo ######

  2. General

  3. Unique ID : 252058514912851674956047251449160224806 (0xBDA0B443E2931C0E090EA00BC0015026)

  4. Complete name : Pacific.Rim.2013.UHD.BluRay.2160p.2Audio.TrueHD.Atmos.7.1.x265.10bit.HDR-BeiTai.mkv

  5. Format : Matroska

  6. Format version : Version 4

  7. File size : 22.5 GiB

  8. Duration : 2 h 11 min

  9. Overall bit rate mode : Variable

  10. Overall bit rate : 24.6 Mb/s

  11. Encoded date : UTC 2020-04-05 04:11:47

  12. Writing application : mkvmerge v44.0.0 ('Domino') 64-bit

  13. Writing library : libebml v1.3.10 + libmatroska v1.5.2

  14. Video

  15. ID : 1

  16. Format : HEVC

  17. Format/Info : High Efficiency Video Coding

  18. Format profile : Main [email protected]@High

  19. HDR format : SMPTE ST 2086, HDR10 compatible

  20. Codec ID : V_MPEGH/ISO/HEVC

  21. Duration : 2 h 11 min

  22. Bit rate : 17.9 Mb/s

  23. Width : 3 840 pixels

  24. Height : 2 160 pixels

  25. Display aspect ratio : 16:9

  26. Frame rate mode : Constant

  27. Frame rate : 23.976 (24000/1001/53354) FPS

  28. Color space : YUV

  29. Chroma subsampling : 4:2:0 (Type 2)

  30. Bit depth : 10 bits

  31. Bits/(Pixel*Frame) : 0.090

  32. Stream size : 16.4 GiB (73%)

  33. Title : HEVC, [email protected]@High, 24/1.001 fps @ 17901 kbps

  34. Writing library : x265 3.3+1-g396395b2b:[Windows][GCC 9.2.0][64 bit] 10bit

  35. Encoding settings : cpuid=533541111039 / frame-threads=4 / numa-pools=12,12 / wpp / pmode / pme / no-psnr / no-ssim / log-level=2 / input-csp=1 / input-res=3840x2160 / interlace=0 / total-frames=188855 / level-idc=51 / high-tier=1 / uhd-bd=0 / ref=4 / no-allow-non-conformance / repeat-headers / annexb / no-aud / hrd / info / hash=0 / no-temporal-layers / no-open-gop / min-keyint=24 / keyint=240 / gop-lookahead=0 / bframes=8 / b-adapt=2 / b-pyramid / bframe-bias=0 / rc-lookahead=25 / lookahead-slices=0 / NTMzNTQ=uuDQuD2mJt9fsCf / scenecut=40 / hist-scenecut=0 / radl=0 / no-splice / no-intra-refresh / ctu=64 / min-cu-size=8 / no-rect / no-amp / max-tu-size=32 / tu-inter-depth=3 / tu-intra-depth=3 / limit-tu=4 / rdoq-level=2 / dynamic-rd=0.00 / no-ssim-rd / signhide / no-tskip / nr-intra=0 / nr-inter=0 / no-constrained-intra / no-strong-intra-smoothing / max-merge=4 / limit-refs=1 / limit-modes / me=3 / subme=4 / merange=25 / temporal-mvp / no-frame-dup / no-hme / weightp / weightb / no-analyze-src-pics / deblock=-3:-3 / no-sao / no-sao-non-deblock / rd=6 / selective-sao=0 / no-early-skip / rskip / no-fast-intra / no-tskip-fast / no-cu-lossless / b-intra / no-splitrd-skip / rdpenalty=0 / psy-rd=2.00 / psy-rdoq=1.00 / no-rd-refine / no-lossless / cbqpoffs=0 / crqpoffs=0 / rc=crf / crf=18.5 / qcomp=0.65 / qpstep=4 / stats-write=0 / stats-read=0 / vbv-maxrate=160000 / vbv-bufsize=160000 / vbv-init=0.9 / crf-max=0.0 / crf-min=0.0 / ipratio=1.30 / pbratio=1.20 / aq-mode=3 / aq-strength=0.85 / cutree / zone-count=0 / no-strict-cbr / qg-size=32 / no-rc-grain / qpmax=69 / qpmin=0 / no-const-vbv / sar=1 / overscan=0 / videoformat=5 / range=0 / colorprim=9 / transfer=16 / colormatrix=9 / chromaloc=1 / chromaloc-top=2 / chromaloc-bottom=2 / display-window=0 / master-display=G(13250,34500)B(7500,3000)R(34000,16000)WP(15635,16450)L(40000000,50) / cll=2465,823 / min-luma=0 / max-luma=1023 / log2-max-poc-lsb=8 / vui-timing-info / vui-hrd-info / slices=1 / no-opt-qp-pps / no-opt-ref-list-length-pps / no-multi-pass-opt-rps / scenecut-bias=0.05 / hist-threshold=0.01 / no-opt-cu-delta-qp / no-aq-motion / hdr10 / hdr10-opt / no-dhdr10-opt / no-idr-recovery-sei / analysis-reuse-level=0 / analysis-save-reuse-level=0 / analysis-load-reuse-level=0 / scale-factor=0 / refine-intra=0 / refine-inter=0 / refine-mv=1 / refine-ctu-distortion=0 / no-limit-sao / ctu-info=0 / no-lowpass-dct / refine-analysis-type=0 / copy-pic=1 / max-ausize-factor=1.0 / no-dynamic-refine / no-single-sei / no-hevc-aq / no-svt / no-field / qp-adaptation-range=1.00 / no-scenecut-aware-qpconformance-window-offsets / right=0 / bottom=0 / NTMzNTQ=

  36. Language : English

  37. Default : Yes

  38. Forced : No

  39. Color range : Limited

  40. Color primaries : BT.2020

  41. Transfer characteristics : PQ

  42. Matrix coefficients : BT.2020 non-constant

  43. Mastering display color primaries : Display P3

  44. Mastering display luminance : min: 0.0050 cd/m2, max: 4000 cd/m2

  45. Maximum Content Light Level : 2465 cd/m2

  46. Maximum Frame-Average Light Level : 823 cd/m2

  47. Audio #1

  48. ID : 2

  49. Format : MLP FBA 16-ch

  50. Format/Info : Meridian Lossless Packing FBA with 16-channel presentation

  51. Commercial name : Dolby TrueHD with Dolby Atmos

  52. Codec ID : A_TRUEHD

  53. Duration : 2 h 11 min

  54. Bit rate mode : Variable

  55. Bit rate : 5 414 kb/s

  56. Maximum bit rate : 8 448 kb/s

  57. Channel(s) : 8 channels

  58. Channel layout : L R C LFE Ls Rs Lb Rb

  59. Sampling rate : 48.0 kHz

  60. Frame rate : 1 200.000 FPS (40 SPF)

  61. Compression mode : Lossless

  62. Stream size : 4.96 GiB (22%)

  63. Title : English Dolby TrueHD 7.1 (Atmos) @ 5862 kbps

  64. Language : English

  65. Default : Yes

  66. Forced : No

  67. Number of dynamic objects : 11

  68. Bed channel count : 1 channel

  69. Bed channel configuration : LFE

  70. Audio #2

  71. ID : 3

  72. Format : AC-3

  73. Format/Info : Audio Coding 3

  74. Commercial name : Dolby Digital

  75. Codec ID : A_AC3

  76. Duration : 2 h 11 min

  77. Bit rate mode : Constant

  78. Bit rate : 448 kb/s

  79. Channel(s) : 6 channels

  80. Channel layout : L R C LFE Ls Rs

  81. Sampling rate : 48.0 kHz

  82. Frame rate : 31.250 FPS (1536 SPF)

  83. Compression mode : Lossy

  84. Stream size : 421 MiB (2%)

  85. Title : English Dolby Digital Audio 5.1 @ 640 kbps

  86. Language : English

  87. Service kind : Complete Main

  88. Default : No

  89. Forced : No

  90. Audio #3

  91. ID : 4

  92. Format : AC-3

  93. Format/Info : Audio Coding 3

  94. Commercial name : Dolby Digital

  95. Codec ID : A_AC3

  96. Duration : 2 h 11 min

  97. Bit rate mode : Constant

  98. Bit rate : 640 kb/s

  99. Channel(s) : 6 channels

  100. Channel layout : L R C LFE Ls Rs

  101. Sampling rate : 48.0 kHz

  102. Frame rate : 31.250 FPS (1536 SPF)

  103. Compression mode : Lossy

  104. Stream size : 601 MiB (3%)

  105. Title : Mandarin Dolby Digital Audio 5.1 @ 640 kbps

  106. Language : Chinese

  107. Service kind : Complete Main

  108. Default : No

  109. Forced : No

  110. Text #1

  111. ID : 5

  112. Format : PGS

  113. Codec ID : S_HDMV/PGS

  114. Codec ID/Info : Picture based subtitle format used on BDs/HD-DVDs

  115. Duration : 2 h 10 min

  116. Bit rate : 31.2 kb/s

  117. Count of elements : 3670

  118. Stream size : 29.1 MiB (0%)

  119. Title : Eng/SUP

  120. Language : English

  121. Default : No

  122. Forced : No

  123. Text #2

  124. ID : 6

  125. Format : PGS

  126. Codec ID : S_HDMV/PGS

  127. Codec ID/Info : Picture based subtitle format used on BDs/HD-DVDs

  128. Duration : 2 h 10 min

  129. Bit rate : 24.2 kb/s

  130. Count of elements : 3322

  131. Stream size : 22.6 MiB (0%)

  132. Title : Chs/SUP 原盘简体

  133. Language : Chinese

  134. Default : Yes

  135. Forced : No

  136. Text #3

  137. ID : 7

  138. Format : PGS

  139. Codec ID : S_HDMV/PGS

  140. Codec ID/Info : Picture based subtitle format used on BDs/HD-DVDs

  141. Duration : 2 h 10 min

  142. Bit rate : 24.1 kb/s

  143. Count of elements : 3320

  144. Stream size : 22.5 MiB (0%)

  145. Title : Cht/SUP 原盘繁体(HK)

  146. Language : Chinese

  147. Default : No

  148. Forced : No

  149. Text #4

  150. ID : 8

  151. Format : PGS

  152. Codec ID : S_HDMV/PGS

  153. Codec ID/Info : Picture based subtitle format used on BDs/HD-DVDs

  154. Duration : 2 h 10 min

  155. Bit rate : 24.6 kb/s

  156. Count of elements : 3344

  157. Stream size : 23.0 MiB (0%)

  158. Title : Cht/SUP 原盘繁体(TW)

  159. Language : Chinese

  160. Default : No

  161. Forced : No

  162. Menu

  163. 00:00:00.000 : en:第 01 章

  164. 00:09:09.090 : en:第 02 章

  165. 00:18:35.781 : en:第 03 章

  166. 00:23:04.300 : en:第 04 章

  167. 00:33:00.353 : en:第 05 章

  168. 00:42:44.854 : en:第 06 章

  169. 00:50:01.624 : en:第 07 章

  170. 01:01:09.624 : en:第 08 章

  171. 01:14:45.064 : en:第 09 章

  172. 01:22:21.270 : en:第 10 章

  173. 01:32:09.899 : en:第 11 章

  174. 01:41:55.568 : en:第 12 章

  175. 01:51:37.816 : en:第 13 章

  176. 01:59:20.987 : en:第 14 章

  177. 02:02:17.789 : en:第 15 章


复制代码



文件下载


除非特别注明,本文『环太平洋[共2部合集][国英多音轨/简繁英字幕].Pacific.Rim.1-2.2013-2018.UHD.BluRay.2160p.2Audio.TrueHD.Atmos.7.1.x265.10b』来源于互联网机器人自动抓取,非本站原创。 浮游电影网不对本文拥有版权,如有侵犯,请联系邮箱:fuyouu#yandex.com[#换成@]投诉。我们会在15个工作日内删除。 但烦请转载时请标明出处:“本文转载于『浮游电影网』,原文地址:https://www.fuyouu.com/21430.html

评论吧骚年!

发表你的见解   

昵称*

E-mail*(建议输入,以便收到博主回复的提示邮件)

验证码*

您可以使用eMule或eMule Mod(Windows)、aMule(Win、Linux、Mac)等软件下载eD2k链接。。
eMule收藏集(.emulecollection)文件是您选中的所有链接的列表文件。eMule可以直接下载它们。
按住SHIFT键选择可以选中多个选择框。
可用文件名和大小选择器来选择文件。
文件名选择器帮您根据文件名称或后缀来选择文件。不分大小写。
符号使用:
和:空格( )、+
不包含:-
或:|
转义:一对英文引号("");
匹配开头:^
匹配结尾:$
例如:
选中所有名称中包含有“eMule”或“0.49c”字眼,但不包含有“exe”字眼的:emule|0.49c -exe
选中所有名称的开头是“eMule”,结尾是“0.49c”的:^emule 0.49c$
选中所有名称中带有“eMule 0.49c”的(必须是“eMule 0.49c”,中间没有别的字符,不能是“eMule fake 0.49c”),需要转义:"emule 0.49c"
大小选择器帮您根据文件大小选择文件。