当前位置: 首页 >> 港台电影 >> 窃听风云[共3部合集][国粤英多音轨/繁英字幕].Overheard.Trilogy.2009-2014.BluRay.1080p.2Audio.DTS-HD.MA.7.1.x265.10bit-AL >> 正文

窃听风云[共3部合集][国粤英多音轨/繁英字幕].Overheard.Trilogy.2009-2014.BluRay.1080p.2Audio.DTS-HD.MA.7.1.x265.10bit-AL

2022年04月18日 15:01:30     电影发布:来源于网络     电影分类:港台电影     评论(0)    

窃听风云[共3部合集][国粤英多音轨/繁英字幕].Overheard.Trilogy.2009 2014.BluRay.1080p.2Audio.DTS HD.MA.7.1.x265.10bit AL  港台电影  第1张

◎译 名 窃听风云 / Overheard

◎片 名 竊聽風雲

◎年 代 2009

◎产 地 中国香港 / 中国大陆 / 新加坡

◎类 别 剧情 / 动作 / 惊悚

◎语 言 粤语 / 汉语普通话

◎上映日期 2009-07-24(中国大陆) / 2009-07-30(中国香港)

◎IMDb链接 https://www.imdb.com/title/tt1349853/

◎豆瓣评分 7.6/10 (264736人评价)

◎豆瓣链接 https://movie.douban.com/subject/3412882/

◎片 长 100分钟(香港)

◎导 演 麦兆辉 Alan Mak (id:1126158)

庄文强 Felix Chong (id:1014716)

◎编 剧 庄文强 Felix Chong (id:1014716)

麦兆辉 Alan Mak (id:1126158)

◎演 员 刘青云 Sean Lau (id:1007251)

古天乐 Louis Koo (id:1027577)

吴彦祖 Daniel Wu (id:1027502)

张静初 Jingchu Zhang (id:1016668)

方中信 Alex Fong (id:1033102)

王敏德 Michael Wong (id:1162139)

李子雄 Waise Lee (id:1037662)

陈伟霆 William Chan (id:1275970)

陆诗韵 Sharon Luk (id:1337532)

袁富华 Fu-wah Yuen (id:1359508)

陈浩 Hao Chen (id:1329520)

黄子雄 Geoffrey Wong Chi-Hung (id:1323088)

骆应钧 Ying Kwan Lok (id:1274577)

林嘉华 Dominic Lam (id:1321559)

杨羚 Ling Yeung (id:1301477)

朱慧敏 Queenie Chu (id:1275992)

欧锦棠 Stephen Au (id:1275712)

邹凯光 Matt Chow (id:1275121)

方平 Henry Fong (id:1312822)

姜广涛 Guangtao Jiang (id:1317670)

于冬 Dong Yu (id:1317865)

林明杰 Eric Lin (id:1374637)

林炳坤 Bingkun Lin (id:1350348)

尔冬升 Tung-shing Yee (id:1274289)

宋岱 Dai Song (id:1395689)

梁智强 Jack Neo (id:1314879)

潘耀明 Anthony Pun (id:1307639)

陈国雄 Kwok Hung Chan (id:1309658)

文念中 Lim Chung Man (id:1275158)

黄斌 Ronald Wong (id:1301199)

◎简 介

情报科窃听小组三兄弟情同手足,梁俊义(刘青云 饰)正直而又懦弱,在个人感情问题上托泥带水;杨真(古天乐 饰)家境窘困,不仅要应付身患白血病儿子的随时可能出现的突发情况,而且自己也病入膏肓,命不久矣;林一祥(吴彦祖 饰)年轻有为,满怀雄心,如今又“嫁入豪门”,前途不可限量。

三兄弟在负责调查上市公司“风华国际”涉嫌内幕交易案起始,通力合作,出色的完成了布置各种偷听及监视仪器的工作。在继续的监听过程中意外获得一则情报,巨额利润诱惑之下,三人遂起贪念,在风起云涌的股市大赚一笔。事后三人又恐事情败露,利用职务之便销毁罪证。

正当三人以为这件事平息之际,却不曾想风云再起,一只意想不到的黑手往他们袭来,三人陷入劫境,连遭杀戮,最终悲情收场。

“三大型男”挑战极限,两大班底(《无间道》、《门徒》)共同打造,一段悲情感人至深。

◎获奖情况 (共11项)

第29届香港电影金像奖 (2010)

最佳电影(提名)

最佳导演(提名)

最佳编剧(提名)

最佳男主角(提名)

└──刘青云 (id:1007251)

最佳男配角(提名)

└──方中信 (id:1033102)

最佳剪接(提名)

第4届亚洲电影大奖 (2010)

最佳剪接(提名)

第10届华语电影传媒大奖 (2010)

百家传媒年度致敬电影(提名)

最佳电影(提名)

最佳导演(提名)

最佳编剧

  1. 合集文件列表:

  2. 1.Overheard.2.2011.BluRay.1080p.2Audio.DTS-HD.MA.5.1.x265.10bit-ALT.mkv 18.32GB

  3. 2.Overheard.3.2014.BluRay.1080p.2Audio.TrueHD.Atmos.7.1.x265.10bit-ALT.mkv 17.70GB

  4. 3.Overheard.2009.BluRay.1080p.2Audio.DTS-HD.MA.7.1.x265.10bit-ALT.mkv 11.17GB


复制代码

  1. ##### MediaInfo ######

  2. General

  3. Unique ID : 202417137031864436051840670584262131450 (0x98481F5F381FC43040524DE0757C7EFA)

  4. Complete name : Overheard.2.2011.BluRay.1080p.2Audio.DTS-HD.MA.5.1.x265.10bit-BeiTai.mkv

  5. Format : Matroska

  6. Format version : Version 4

  7. File size : 18.3 GiB

  8. Duration : 1 h 59 min

  9. Overall bit rate mode : Variable

  10. Overall bit rate : 22.0 Mb/s

  11. Encoded date : UTC 2020-07-14 04:48:38

  12. Writing application : mkvmerge v48.0.0 ('Fortress Around Your Heart') 64-bit

  13. Writing library : libebml v1.4.0 + libmatroska v1.6.0

  14. Video

  15. ID : 1

  16. Format : HEVC

  17. Format/Info : High Efficiency Video Coding

  18. Format profile : Main [email protected]@High

  19. Codec ID : V_MPEGH/ISO/HEVC

  20. Duration : 1 h 59 min

  21. Bit rate : 15.8 Mb/s

  22. Width : 1 920 pixels

  23. Height : 816 pixels

  24. Display aspect ratio : 2.35:1

  25. Frame rate mode : Constant

  26. Frame rate : 24.000 FPS

  27. Color space : YUV

  28. Chroma subsampling : 4:2:0

  29. Bit depth : 10 bits

  30. Bits/(Pixel*Frame) : 0.420

  31. Stream size : 13.2 GiB (72%)

  32. Title : HEVC, [email protected]@High, 24 fps @ 15778 kbps

  33. Writing library : x265 3.3+1-g396395b2b:[Windows][GCC 9.2.0][64 bit] 10bit

  34. Encoding settings : cpuid=533541111039 / frame-threads=5 / numa-pools=44,44 / wpp / pmode / pme / no-psnr / no-ssim / log-level=2 / input-csp=1 / input-res=1920x816 / interlace=0 / total-frames=171903 / level-idc=51 / high-tier=1 / uhd-bd=0 / ref=5 / no-allow-non-conformance / no-repeat-headers / annexb / no-aud / no-hrd / info / hash=0 / no-temporal-layers / open-gop / min-keyint=24 / keyint=240 / gop-lookahead=0 / bframes=6 / b-adapt=2 / b-pyramid / bframe-bias=0 / rc-lookahead=40 / lookahead-slices=0 / NTMzNTQ=uuDQuD2mJt9fsCf / scenecut=40 / hist-scenecut=0 / radl=0 / no-splice / no-intra-refresh / ctu=32 / min-cu-size=8 / no-rect / no-amp / max-tu-size=32 / tu-inter-depth=3 / tu-intra-depth=3 / limit-tu=4 / rdoq-level=2 / dynamic-rd=0.00 / no-ssim-rd / signhide / no-tskip / nr-intra=0 / nr-inter=0 / no-constrained-intra / no-strong-intra-smoothing / max-merge=4 / limit-refs=1 / limit-modes / me=3 / subme=4 / merange=25 / temporal-mvp / no-frame-dup / no-hme / weightp / weightb / no-analyze-src-pics / deblock=-3:-3 / no-sao / no-sao-non-deblock / rd=6 / selective-sao=0 / no-early-skip / rskip / no-fast-intra / no-tskip-fast / no-cu-lossless / b-intra / no-splitrd-skip / rdpenalty=0 / psy-rd=2.00 / psy-rdoq=1.00 / no-rd-refine / no-lossless / cbqpoffs=0 / crqpoffs=0 / rc=crf / crf=17.0 / qcomp=0.65 / qpstep=4 / stats-write=0 / stats-read=0 / vbv-maxrate=80000 / vbv-bufsize=80000 / vbv-init=0.9 / crf-max=0.0 / crf-min=0.0 / ipratio=1.40 / pbratio=1.30 / aq-mode=2 / aq-strength=0.85 / cutree / zone-count=0 / no-strict-cbr / qg-size=32 / no-rc-grain / qpmax=69 / qpmin=0 / no-const-vbv / sar=1 / overscan=0 / videoformat=5 / range=0 / colorprim=1 / transfer=1 / colormatrix=1 / chromaloc=0 / display-window=0 / cll=0,0 / min-luma=0 / max-luma=1023 / log2-max-poc-lsb=8 / vui-timing-info / vui-hrd-info / slices=1 / no-opt-qp-pps / no-opt-ref-list-length-pps / no-multi-pass-opt-rps / scenecut-bias=0.05 / hist-threshold=0.01 / no-opt-cu-delta-qp / no-aq-motion / no-hdr10 / no-hdr10-opt / no-dhdr10-opt / no-idr-recovery-sei / analysis-reuse-level=0 / analysis-save-reuse-level=0 / analysis-load-reuse-level=0 / scale-factor=0 / refine-intra=0 / refine-inter=0 / refine-mv=1 / refine-ctu-distortion=0 / no-limit-sao / ctu-info=0 / no-lowpass-dct / refine-analysis-type=0 / copy-pic=1 / max-ausize-factor=1.0 / no-dynamic-refine / no-single-sei / no-hevc-aq / no-svt / no-field / qp-adaptation-range=1.00 / no-scenecut-aware-qpconformance-window-offsets / right=0 / bottom=0 / NTMzNTQ=

  35. Language : English

  36. Default : Yes

  37. Forced : No

  38. Color range : Limited

  39. Color primaries : BT.709

  40. Transfer characteristics : BT.709

  41. Matrix coefficients : BT.709

  42. Audio #1

  43. ID : 2

  44. Format : DTS XLL

  45. Format/Info : Digital Theater Systems

  46. Commercial name : DTS-HD Master Audio

  47. Codec ID : A_DTS

  48. Duration : 1 h 59 min

  49. Bit rate mode : Variable

  50. Bit rate : 3 831 kb/s

  51. Channel(s) : 6 channels

  52. Channel layout : C L R Ls Rs LFE

  53. Sampling rate : 48.0 kHz

  54. Frame rate : 93.750 FPS (512 SPF)

  55. Bit depth : 24 bits

  56. Compression mode : Lossless

  57. Stream size : 3.19 GiB (17%)

  58. Title : Cantonese DTS-HD Master Audio 7.1 @ 3831 kbps

  59. Language : Chinese

  60. Default : Yes

  61. Forced : No

  62. Audio #2

  63. ID : 3

  64. Format : DTS XLL

  65. Format/Info : Digital Theater Systems

  66. Commercial name : DTS-HD Master Audio

  67. Codec ID : A_DTS

  68. Duration : 1 h 59 min

  69. Bit rate mode : Variable

  70. Bit rate : 1 912 kb/s

  71. Channel(s) : 6 channels

  72. Channel layout : C L R Ls Rs LFE

  73. Sampling rate : 48.0 kHz

  74. Frame rate : 93.750 FPS (512 SPF)

  75. Bit depth : 16 bits

  76. Compression mode : Lossless

  77. Stream size : 1.59 GiB (9%)

  78. Title : Mandarin DTS-HD Master Audio 5.1 @ 1913 kbps

  79. Language : Chinese

  80. Default : No

  81. Forced : No

  82. Audio #3

  83. ID : 4

  84. Format : AC-3

  85. Format/Info : Audio Coding 3

  86. Commercial name : Dolby Digital

  87. Codec ID : A_AC3

  88. Duration : 1 h 59 min

  89. Bit rate mode : Constant

  90. Bit rate : 384 kb/s

  91. Channel(s) : 2 channels

  92. Channel layout : L R

  93. Sampling rate : 48.0 kHz

  94. Frame rate : 31.250 FPS (1536 SPF)

  95. Compression mode : Lossy

  96. Stream size : 328 MiB (2%)

  97. Title : Cantonese Dolby Digital Audio 2.0 @ 384 kbps Commentary

  98. Language : Chinese

  99. Service kind : Complete Main

  100. Default : No

  101. Forced : No

  102. Text #1

  103. ID : 5

  104. Format : PGS

  105. Codec ID : S_HDMV/PGS

  106. Codec ID/Info : Picture based subtitle format used on BDs/HD-DVDs

  107. Duration : 1 h 53 min

  108. Bit rate : 27.7 kb/s

  109. Count of elements : 2586

  110. Stream size : 22.5 MiB (0%)

  111. Title : Cht/SUP 原盘繁体

  112. Language : Chinese

  113. Default : Yes

  114. Forced : No

  115. Text #2

  116. ID : 6

  117. Format : PGS

  118. Codec ID : S_HDMV/PGS

  119. Codec ID/Info : Picture based subtitle format used on BDs/HD-DVDs

  120. Duration : 1 h 53 min

  121. Bit rate : 30.7 kb/s

  122. Count of elements : 2586

  123. Stream size : 24.9 MiB (0%)

  124. Title : Eng/SUP

  125. Language : English

  126. Default : No

  127. Forced : No

  128. Menu

  129. 00:00:00.000 : en:第 01 章

  130. 00:11:38.167 : en:第 02 章

  131. 00:19:49.375 : en:第 03 章

  132. 00:32:38.208 : en:第 04 章

  133. 00:38:31.958 : en:第 05 章

  134. 00:50:02.500 : en:第 06 章

  135. 01:01:07.750 : en:第 07 章

  136. 01:11:16.375 : en:第 08 章

  137. 01:21:33.667 : en:第 09 章

  138. 01:29:35.083 : en:第 10 章

  139. 01:40:00.875 : en:第 11 章

  140. 01:48:26.875 : en:第 12 章


复制代码



文件下载


除非特别注明,本文『窃听风云[共3部合集][国粤英多音轨/繁英字幕].Overheard.Trilogy.2009-2014.BluRay.1080p.2Audio.DTS-HD.MA.7.1.x265.10bit-AL』来源于互联网机器人自动抓取,非本站原创。 浮游电影网不对本文拥有版权,如有侵犯,请联系邮箱:fuyouu#yandex.com[#换成@]投诉。我们会在15个工作日内删除。 但烦请转载时请标明出处:“本文转载于『浮游电影网』,原文地址:https://www.fuyouu.com/21429.html

评论吧骚年!

发表你的见解   

昵称*

E-mail*(建议输入,以便收到博主回复的提示邮件)

验证码*

您可以使用eMule或eMule Mod(Windows)、aMule(Win、Linux、Mac)等软件下载eD2k链接。。
eMule收藏集(.emulecollection)文件是您选中的所有链接的列表文件。eMule可以直接下载它们。
按住SHIFT键选择可以选中多个选择框。
可用文件名和大小选择器来选择文件。
文件名选择器帮您根据文件名称或后缀来选择文件。不分大小写。
符号使用:
和:空格( )、+
不包含:-
或:|
转义:一对英文引号("");
匹配开头:^
匹配结尾:$
例如:
选中所有名称中包含有“eMule”或“0.49c”字眼,但不包含有“exe”字眼的:emule|0.49c -exe
选中所有名称的开头是“eMule”,结尾是“0.49c”的:^emule 0.49c$
选中所有名称中带有“eMule 0.49c”的(必须是“eMule 0.49c”,中间没有别的字符,不能是“eMule fake 0.49c”),需要转义:"emule 0.49c"
大小选择器帮您根据文件大小选择文件。