当前位置: 首页 >> 国产电影 >> 战狼[杜比视界版本][国语配音/中文字幕].Wolf.Warriors.2015.2160p.WEB-DL.H265.DV.AAC-HDBWEB 5.05GB >> 正文

战狼[杜比视界版本][国语配音/中文字幕].Wolf.Warriors.2015.2160p.WEB-DL.H265.DV.AAC-HDBWEB 5.05GB

2022年04月18日 14:58:11     电影发布:来源于网络     电影分类:国产电影     评论(0)    

战狼[杜比视界版本][国语配音/中文字幕].Wolf.Warriors.2015.2160p.WEB DL.H265.DV.AAC HDBWEB 5.05GB  国产电影  第1张

◎译 名 战狼 / 特种兵之战狼 / 兵锋 / Wolf Warriors / Wolf War / Warg

◎年 代 2015

◎产 地 中国大陆

◎类 别 动作 / 战争

◎语 言 汉语普通话 / 英语

◎上映日期 2015-04-02(中国大陆)

◎IMDb链接 https://www.imdb.com/title/tt3540136/

◎豆瓣评分 7.0/10 (281468人评价)

◎豆瓣链接 https://movie.douban.com/subject/24753810/

◎片 长 90分钟

◎导 演 吴京 Jing Wu (id:1000525)

◎编 剧 吴京 Jing Wu (id:1000525)

刘毅 Yi Liu (id:1320809)

董群 Qun Dong (id:1346473)

高岩 Yan Gao (id:1346472)

◎演 员 吴京 Jing Wu (id:1000525)

余男 Nan Yu (id:1050430)

斯科特·阿金斯 Scott Adkins (id:1017912)

李凯文 Kevin Lee (id:1345636)

倪大红 Dahong Ni (id:1274306)

凯尔·夏皮罗 Kyle Shapiro (id:1345637)

石兆琪 Zhaoqi Shi (id:1315058)

周晓鸥 Xiaoou Zhou (id:1316334)

房子斌 Zibin Fang (id:1316392)

郭广平 Guangping Guo (id:1318073)

茹萍 Ping Ru (id:1315116)

洪卫 Wei Hong (id:1335603)

刘腾远 Tengyuan Liu (id:1323764)

索纳·伊姆贝 Sona Eyambe (id:1345638)

塞缪尔·西维尔奇 Samuel Thivierge (id:1333320)

庄小龙 Xiaolong Zhuang (id:1361307)

郑好 Hao Zheng (id:1362586)

张永达 Yongda Zhang (id:1350186)

邓紫衣 Ziyi Deng (id:1312698)

闪媛媛 Yuanyuan Shan (id:1335599)

高战 Chris Collins (id:1379355)

王森 Sen Wang (id:1314632)

马东延 Dongyan Ma (id:1316513)

董冬冬 Dongdong Dong (id:1348747)

魏杰 Jie Wei (id:1424382)

户国防 (id:1434282)

李忠志 Chung Chi Li (id:1014763)

◎简 介

在南疆围捕贩毒分子的行动中,特种部队狙击手冷锋(吴京 饰)公然违抗上级的命令,开枪射杀伤害了战友的暴徒武吉(周晓鸥 饰)。这一行动令冷锋遭到军方禁闭甚至强制退伍的处罚,不过各特种部队精英组成超级特种部队战狼中队的中队长龙小云(余男 饰),却十分欣赏这个敢作敢为且业务过硬的血性男儿,于是将其召入自己的麾下。在新近的一次演习中,冷锋凭借冷静的判断力从老首长处拔得一城,并且成功击退了突然出现的狼群。谁知在毫无准备的情况下,战狼遭到了一伙荷枪实弹分子的袭击。原来武吉的哥哥敏登(倪大红 饰)是一个冷酷无情的国际通缉犯,他手下豢养了一大批身怀绝技的雇佣兵。

为了给弟弟报仇,敏登派出雇佣兵千里迢迢奔着冷锋而来……

◎获奖情况 (共15项)

第18届上海国际电影节 (2015)

亚洲新人奖 最佳影片(提名)

亚洲新人奖 最佳导演(提名)

└──吴京 (id:1000525)

电影频道传媒大奖 组委会特别奖

第30届中国电影金鸡奖 (2015)

最佳故事片(提名)

最佳剪辑(提名)

第33届大众电影百花奖 (2016)

最佳故事片(提名)

优秀故事片

最佳导演(提名)

└──吴京 (id:1000525)

最佳编剧(提名)

最佳女主角(提名)

└──余男 (id:1050430)

最佳新人

└──庄小龙 (id:1361307)

第16届中国电影华表奖 (2016)

优秀故事片奖

第22届北京大学生电影节 (2015)

最佳处女作奖

└──吴京 (id:1000525)

最佳观赏效果奖(提名)

第2届豆瓣电影年度榜单 (2015)

4月最受关注电影(提名)

  1. ##### MediaInfo ######

  2. General

  3. Complete name : 战狼.Wolf.Warriors.2015.2160p.WEB-DL.H265.DV.AAC-OurTV.mp4

  4. Format : MPEG-4

  5. Format profile : Base Media / Version 2

  6. Codec ID : mp42 (mp42/iso6/isom/msdh/dby1)

  7. File size : 5.04 GiB

  8. Duration : 1 h 30 min

  9. Overall bit rate mode : Variable

  10. Overall bit rate : 8 017 kb/s

  11. Encoded date : UTC 2022-04-15 00:47:18

  12. Tagged date : UTC 2022-04-15 00:47:18

  13. Video

  14. ID : 1

  15. Format : HEVC

  16. Format/Info : High Efficiency Video Coding

  17. Format profile : Main [email protected]@Main

  18. HDR format : Dolby Vision, Version 1.0, dvhe.05.08, BL+RPU

  19. Codec ID : dvhe

  20. Codec ID/Info : High Efficiency Video Coding with Dolby Vision

  21. Duration : 1 h 30 min

  22. Bit rate : 7 756 kb/s

  23. Width : 3 840 pixels

  24. Height : 1 624 pixels

  25. Original height : 1 620 pixels

  26. Display aspect ratio : 2.40:1

  27. Frame rate mode : Constant

  28. Frame rate : 50.000 FPS

  29. Color space : YUV

  30. Chroma subsampling : 4:2:0

  31. Bit depth : 10 bits

  32. Bits/(Pixel*Frame) : 0.025

  33. Stream size : 4.88 GiB (97%)

  34. Default : Yes

  35. Alternate group : 1

  36. Encoded date : UTC 2022-04-15 00:47:18

  37. Tagged date : UTC 2022-04-15 00:47:18

  38. Color range : Full

  39. Codec configuration box : hvcC+dvcC

  40. Audio

  41. ID : 2

  42. Format : AAC LC

  43. Format/Info : Advanced Audio Codec Low Complexity

  44. Codec ID : mp4a-40-2

  45. Duration : 1 h 30 min

  46. Bit rate mode : Variable

  47. Bit rate : 253 kb/s

  48. Maximum bit rate : 256 kb/s

  49. Channel(s) : 2 channels

  50. Channel layout : L R

  51. Sampling rate : 48.0 kHz

  52. Frame rate : 46.875 FPS (1024 SPF)

  53. Compression mode : Lossy

  54. Stream size : 163 MiB (3%)

  55. Language : Chinese

  56. Default : Yes

  57. Alternate group : 2

  58. Encoded date : UTC 2022-04-15 00:47:18

  59. Tagged date : UTC 2022-04-15 00:47:18


复制代码



文件下载


除非特别注明,本文『战狼[杜比视界版本][国语配音/中文字幕].Wolf.Warriors.2015.2160p.WEB-DL.H265.DV.AAC-HDBWEB 5.05GB』来源于互联网机器人自动抓取,非本站原创。 浮游电影网不对本文拥有版权,如有侵犯,请联系邮箱:fuyouu#yandex.com[#换成@]投诉。我们会在15个工作日内删除。 但烦请转载时请标明出处:“本文转载于『浮游电影网』,原文地址:https://www.fuyouu.com/21426.html

评论吧骚年!

发表你的见解   

昵称*

E-mail*(建议输入,以便收到博主回复的提示邮件)

验证码*

您可以使用eMule或eMule Mod(Windows)、aMule(Win、Linux、Mac)等软件下载eD2k链接。。
eMule收藏集(.emulecollection)文件是您选中的所有链接的列表文件。eMule可以直接下载它们。
按住SHIFT键选择可以选中多个选择框。
可用文件名和大小选择器来选择文件。
文件名选择器帮您根据文件名称或后缀来选择文件。不分大小写。
符号使用:
和:空格( )、+
不包含:-
或:|
转义:一对英文引号("");
匹配开头:^
匹配结尾:$
例如:
选中所有名称中包含有“eMule”或“0.49c”字眼,但不包含有“exe”字眼的:emule|0.49c -exe
选中所有名称的开头是“eMule”,结尾是“0.49c”的:^emule 0.49c$
选中所有名称中带有“eMule 0.49c”的(必须是“eMule 0.49c”,中间没有别的字符,不能是“eMule fake 0.49c”),需要转义:"emule 0.49c"
大小选择器帮您根据文件大小选择文件。