当前位置: 首页 >> 国产电影 >> 心理罪之城市之光[国语配音/中文字幕].The.Liquidator.2017.2160p.WEB-DL.H265.AAC-CTRLWEB 10.73GB >> 正文

心理罪之城市之光[国语配音/中文字幕].The.Liquidator.2017.2160p.WEB-DL.H265.AAC-CTRLWEB 10.73GB

2022年04月18日 14:57:12     电影发布:来源于网络     电影分类:国产电影     评论(0)    

心理罪之城市之光[国语配音/中文字幕].The.Liquidator.2017.2160p.WEB DL.H265.AAC CTRLWEB 10.73GB  国产电影  第1张

◎译 名 心理罪之城市之光 / 心理罪·城市之光 / 城市之光 / 缉凶者 / The Liquidator

◎年 代 2017

◎产 地 中国大陆 / 中国香港

◎类 别 动作 / 悬疑 / 犯罪

◎语 言 汉语普通话

◎上映日期 2017-12-22(中国大陆)

◎IMDb链接 https://www.imdb.com/title/tt7286908/

◎豆瓣评分 5.9/10 (149024人评价)

◎豆瓣链接 https://movie.douban.com/subject/26774722/

◎片 长 124分钟

◎导 演 徐纪周 Jizhou Xu (id:1317195)

◎编 剧 徐纪周 Jizhou Xu (id:1317195)

雷米 Mi Lei (id:1369123)

◎演 员 邓超 Chao Deng (id:1274235)

阮经天 Ethan Juan (id:1259866)

刘诗诗 Shishi Liu (id:1274533)

文淇 Qi Wen (id:1369135)

林嘉欣 Karena Lam (id:1204410)

郭京飞 Jingfei Guo (id:1274663)

马苏 Su Ma (id:1275459)

余皑磊 Ailei Yu (id:1313809)

何泓姗 Hongshan He (id:1328277)

田雨 Yu Tian (id:1316331)

代旭 Xu Dai (id:1321741)

石兆琪 Zhaoqi Shi (id:1315058)

刘天佐 Tianzuo Liu (id:1318324)

胡珂瑜 Keyu Hu (id:1313493)

王彦懿 Lele Wang (id:1335316)

刘家祎 Jiayi Liu (id:1397524)

何铁红 Tiehong He (id:1371803)

孟菲 Fei Meng (id:1364607)

秦戈 Ge Qin (id:1364572)

尚铁龙 Tielong Shang (id:1326042)

杨皓宇 Haoyu Yang (id:1318482)

郑晓宁 Xiaoning Zheng (id:1275706)

刘彦卿 Yanqing Liu (id:1314469)

何昕霖 Xinlin He (id:1371769)

徐洁儿 Jill Hsu (id:1315812)

杨奕佳 Yijia Yang (id:1356837)

马歌 Ge Ma (id:1336952)

李健 Jian Li (id:1315975)

郭盛 Sheng Guo (id:1340805)

王凯熠 Kaiyi Wang (id:1379423)

徐菁遥 Jingyao Xu (id:1404500)

孙亮 Liang Sun (id:1338960)

潘宜刚 Yigang Pan (id:1394620)

何韵明 Ivy Ho (id:1443829)

李晓军 Xiaojun Li (id:1355011)

张晗 Han Zhang (id:1442702)

任仲伦 Zhonglun Ren (id:1333045)

江志强 William Kong (id:1288870)

钱瑞 Rui Qian (id:1417972)

徐纪周 Jizhou Xu (id:1317195)

李晓萍 Xiaoping Li (id:1397479)

郑志昊 Zhihao Zheng (id:1397531)

李超华 Chiu Wah Lee (id:1399371)

徐春萍 Chunping Xu (id:1448941)

俞白眉 Baimei Yu (id:1316617)

李传龙 Chuanlong Li (id:1419820)

冷一 Leng Yi (id:1417979)

康利 Li Kang (id:1397561)

董冬冬 Dongdong Dong (id:1348747)

金培达 Peter Kam (id:1288082)

郑兆强 Siu-keung Cheng (id:1280597)

胡海昕 Haixin Hu (id:1447228)

罗伯特·兰伯特 Robert K. Lambert (id:1289320)

邱伟明 Alfred Yau (id:1301442)

王宝仪 Po Yee Wong (id:1400473)

黄国雄 Samuel Wong (id:1426248)

金俊祺 Key Jin (id:1448251)

苏柏丽 Bai-Li Su (id:1332089)

李昭桦 Charles Lee (id:1352759)

伍刚 Gang Wu (id:1284478)

谷垣健治 Kenji Tanigaki (id:1335515)

◎简 介

一起连环凶杀案掀起了城市的狂欢与躁动,数起案件中受害者均遭虐待致死,且充满仪式感,所有线索都与一个人有关——精通犯罪心理学的天才神探方木(邓超 饰)。在与同事米楠(刘诗诗 饰)调查案件时,方木发现曾经是自己高中同学的江亚(阮经天 饰)似乎深藏很多秘密。此时网络上出现名为“城市之光”的用户,以发起投票的方式让大众决定律师任川(郭京飞 饰)的生死,方木、米楠等警察虽然用尽一切办法,依然无法阻止这场“以暴制暴”的黑暗审判,这座城市陷入了混乱的旋涡。紧要关头,方木觉察到江亚的妻子魏巍(林嘉欣 饰)竟然是解锁江亚秘密的重要证人,就在真相即将大白的关键时刻,一场惊人变故突如其来.....

◎获奖情况 (共1项)

第4届豆瓣电影年度榜单 (2017)

12月最受关注电影(提名)

  1. ##### MediaInfo ######

  2. General

  3. Complete name : The.Liquidator.2017.2160p.WEB-DL.H265.AAC-CHDWEB.mp4

  4. Format : MPEG-4

  5. Format profile : Base Media

  6. Codec ID : isom (isom/iso2/mp41)

  7. File size : 10.7 GiB

  8. Duration : 2 h 4 min

  9. Overall bit rate mode : Variable

  10. Overall bit rate : 12.4 Mb/s

  11. Recorded date : 2022-04-14T13:46:34.0235812+08:00

  12. Writing application : Lavf59.16.100

  13. Video

  14. ID : 1

  15. Format : HEVC

  16. Format/Info : High Efficiency Video Coding

  17. Format profile : [email protected]@Main

  18. Codec ID : hev1

  19. Codec ID/Info : High Efficiency Video Coding

  20. Duration : 2 h 4 min

  21. Bit rate : 12.2 Mb/s

  22. Width : 3 840 pixels

  23. Height : 1 600 pixels

  24. Display aspect ratio : 2.40:1

  25. Frame rate mode : Constant

  26. Frame rate : 24.000 FPS

  27. Color space : YUV

  28. Chroma subsampling : 4:2:0

  29. Bit depth : 8 bits

  30. Bits/(Pixel*Frame) : 0.082

  31. Stream size : 10.6 GiB (98%)

  32. Codec configuration box : hvcC

  33. Audio

  34. ID : 2

  35. Format : AAC LC

  36. Format/Info : Advanced Audio Codec Low Complexity

  37. Codec ID : mp4a-40-2

  38. Duration : 2 h 4 min

  39. Bit rate mode : Variable

  40. Bit rate : 192 kb/s

  41. Channel(s) : 2 channels

  42. Channel layout : L R

  43. Sampling rate : 44.1 kHz

  44. Frame rate : 43.066 FPS (1024 SPF)

  45. Compression mode : Lossy

  46. Stream size : 169 MiB (2%)

  47. Default : Yes

  48. Alternate group : 1


复制代码



文件下载


除非特别注明,本文『心理罪之城市之光[国语配音/中文字幕].The.Liquidator.2017.2160p.WEB-DL.H265.AAC-CTRLWEB 10.73GB』来源于互联网机器人自动抓取,非本站原创。 浮游电影网不对本文拥有版权,如有侵犯,请联系邮箱:fuyouu#yandex.com[#换成@]投诉。我们会在15个工作日内删除。 但烦请转载时请标明出处:“本文转载于『浮游电影网』,原文地址:https://www.fuyouu.com/21425.html

评论吧骚年!

发表你的见解   

昵称*

E-mail*(建议输入,以便收到博主回复的提示邮件)

验证码*

您可以使用eMule或eMule Mod(Windows)、aMule(Win、Linux、Mac)等软件下载eD2k链接。。
eMule收藏集(.emulecollection)文件是您选中的所有链接的列表文件。eMule可以直接下载它们。
按住SHIFT键选择可以选中多个选择框。
可用文件名和大小选择器来选择文件。
文件名选择器帮您根据文件名称或后缀来选择文件。不分大小写。
符号使用:
和:空格( )、+
不包含:-
或:|
转义:一对英文引号("");
匹配开头:^
匹配结尾:$
例如:
选中所有名称中包含有“eMule”或“0.49c”字眼,但不包含有“exe”字眼的:emule|0.49c -exe
选中所有名称的开头是“eMule”,结尾是“0.49c”的:^emule 0.49c$
选中所有名称中带有“eMule 0.49c”的(必须是“eMule 0.49c”,中间没有别的字符,不能是“eMule fake 0.49c”),需要转义:"emule 0.49c"
大小选择器帮您根据文件大小选择文件。