当前位置: 首页 >> 欧美电影 >> 搏击俱乐部[中文字幕].Fight.Club.1999.REMASTERED.1080p.BluRay.REMUX.AVC.DTS-HD.MA.5.1-FGT 29.00GB >> 正文

搏击俱乐部[中文字幕].Fight.Club.1999.REMASTERED.1080p.BluRay.REMUX.AVC.DTS-HD.MA.5.1-FGT 29.00GB

2022年04月18日 14:54:49     电影发布:来源于网络     电影分类:欧美电影     评论(0)    

搏击俱乐部[中文字幕].Fight.Club.1999.REMASTERED.1080p.BluRay.REMUX.AVC.DTS HD.MA.5.1 FGT 29.00GB  欧美电影  第1张

◎译 名 搏击俱乐部 / 搏击会(港) / 斗阵俱乐部(台) / 格斗俱乐部

◎片 名 Fight Club

◎年 代 1999

◎产 地 美国 / 德国 / 意大利

◎类 别 剧情 / 动作 / 悬疑 / 惊悚

◎语 言 英语

◎上映日期 1999-09-10(威尼斯电影节) / 1999-10-15(美国)

◎IMDb链接 https://www.imdb.com/title/tt0137523/

◎豆瓣评分 9.0/10 (766841人评价)

◎豆瓣链接 https://movie.douban.com/subject/1292000/

◎片 长 139 分钟

◎导 演 大卫·芬奇 David Fincher (id:1012521)

◎编 剧 恰克·帕拉尼克 Chuck Palahniuk (id:1032212)

吉姆·乌尔斯 Jim Uhls (id:1000662)

◎演 员 爱德华·诺顿 Edward Norton (id:1035676)

布拉德·皮特 Brad Pitt (id:1054452)

海伦娜·伯翰·卡特 Helena Bonham Carter (id:1016680)

扎克·格雷尼尔 Zach Grenier (id:1099400)

米特·洛夫 Meat Loaf (id:1027270)

杰瑞德·莱托 Jared Leto (id:1013764)

艾恩·贝利 Eion Bailey (id:1018039)

里奇蒙德·阿奎特 Richmond Arquette (id:1059818)

乔治·马奎尔 George Maguire (id:1117551)

Ezra Buzzington Ezra Buzzington (id:1446698)

Carl Ciarfalio Carl Ciarfalio (id:1069576)

斯图尔特·布拉姆博格 Stuart Blumberg (id:1009940)

马特·温斯顿 Matt Winston (id:1165317)

劳伦·桑切斯 Lauren Sanchez (id:1143592)

Tyrone R. Livingston Tyrone R. Livingston (id:1121680)

保罗·卡拉夫特斯 Paul Carafotes (id:1071853)

Scotch Ellis Loring Scotch Ellis Loring (id:1023309)

Andi Carnick Andi Carnick (id:1078010)

迈克尔·肖姆斯·维尔斯 Michael Shamus Wiles (id:1167784)

Markus Redmond Markus Redmond (id:1005279)

大卫·安德鲁斯 David Andrews (id:1057006)

鲍勃·斯蒂芬森 Bob Stephenson (id:1159961)

欧根妮·邦杜兰特 Eugenie Bondurant (id:1061467)

凯文·斯科特·麦克 Kevin Scott Mack (id:1290647)

Bennie Moore Bennie Moore (id:1292392)

埃文·米兰德 Evan Mirand (id:1292186)

乔伊·比索奈特 Joel Bissonnette (id:1318676)

Christina Cabot Christina Cabot (id:1070958)

大卫·李·史密斯 David Lee Smith (id:1149041)

霍特·麦克卡兰尼 Holt McCallany (id:1118033)

阿特·林森 Art Linson (id:1290103)

杰夫·克隆威斯 Jeff Cronenweth (id:1014454)

James Haygood James Haygood (id:1286287)

杰·哈特 Jay Hart (id:1286155)

克里斯·格拉克 Chris Gorak (id:1285166)

阿莱克斯·麦克唐维尔 Alex McDowell (id:1291544)

迈克尔·卡普兰 Michael Kaplan (id:1288109)

Julie Pearce Julie Pearce (id:1294166)

Randy Westgate Randy Westgate (id:1300743)

罗伯·博汀 Rob Bottin (id:1276191)

Patricia Miller Patricia Miller (id:1292094)

Margaret Prentice Margaret Prentice (id:1278536)

琼·安·布兰克 Jean Ann Black (id:1278717)

佐尔坦·埃雷克 Zoltan Elek (id:1283102)

布莱德利·帕克 Bradley Parker (id:1293972)

肖恩·安德鲁·法登 Sean Andrew Faden (id:1283408)

Rich Thorne Rich Thorne (id:1299226)

迈克尔·坎弗 Michael Kanfer (id:1288088)

David Prescott David Prescott (id:1294866)

Ryan Laney Ryan Laney (id:1289381)

丹·赖蒙 Dan Lemmon (id:1289780)

Andrea D'Amico Andrea D'Amico (id:1281681)

马修·E·巴特勒 Matthew E. Butler (id:1279754)

凯里·维尔加斯 Carey Villegas (id:1300081)

卡洛斯·沙尔丹哈 Carlos Saldanha (id:1009704)

Ken Locsmandi Ken Locsmandi (id:1303583)

奥·布里克 Ed Ulbrich (id:1410103)

艾琳·莫兰 Eileen Moran (id:1302083)

麦克·特米尔 Mike Thurmeier (id:1299248)

莱斯·伯恩斯汀 Les Bernstien (id:1278498)

Chris Y. Yang Chris Y. Yang (id:1301404)

凯文·斯科特·麦克 Kevin Scott Mack (id:1290647)

◎简 介

杰克(爱德华?诺顿 饰)是一个大汽车公司的职员,患有严重的失眠症,对周围的一切充满危机和憎恨。

一个偶然的机会,杰克遇上了卖肥皂的商人泰勒(布拉德?皮特),一个浑身充满叛逆、残酷和暴烈的痞子英雄,并因为自己公寓失火而住进了泰勒破旧不堪的家中。两人因缘际会地成为了好朋友,并创立了“搏击俱乐部”:一个让人们不戴护具而徒手搏击,宗旨在于发泄情绪的地下组织。

俱乐部吸引了越来越多的人,逐渐发展成为一个全国性的地下组织,而泰勒也以自己个人的魅力,吸引着那些盲目的信徒。俱乐部的成员们到处滋事打架、大肆破坏,泰勒本人的行为也越来越疯狂。

杰克对于“搏击俱乐部”的现况及泰勒的行为越来越无法忍受,和泰勒发生争执,泰勒离开了他。然而,杰克发现,他走到何处都无法摆脱泰勒的影子,他开始思考:我到底是谁?

◎获奖情况 (共1项)

第72届奥斯卡金像奖 (2000)

最佳音效剪辑(提名)

  1. Video

  2. ID : 1

  3. ID in the original source medium : 4113 (0x1011)

  4. Format : AVC

  5. Format/Info : Advanced Video Codec

  6. Format profile : [email protected]

  7. Format settings : CABAC / 4 Ref Frames

  8. Format settings, CABAC : Yes

  9. Format settings, Reference frames : 4 frames

  10. Codec ID : V_MPEG4/ISO/AVC

  11. Duration : 2 h 19 min

  12. Bit rate mode : Variable

  13. Bit rate : 23.4 Mb/s

  14. Maximum bit rate : 35.0 Mb/s

  15. Width : 1 920 pixels

  16. Height : 1 080 pixels

  17. Display aspect ratio : 16:9

  18. Frame rate mode : Constant

  19. Frame rate : 23.976 (24000/1001/53354) FPS

  20. Color space : YUV

  21. Chroma subsampling : 4:2:0

  22. Bit depth : 8 bits

  23. Scan type : Progressive

  24. Bits/(Pixel*Frame) : 0.471

  25. Stream size : 22.7 GiB (78%)

  26. Language : English

  27. Default : No

  28. Forced : No

  29. Color range : Limited

  30. Color primaries : BT.709

  31. Transfer characteristics : BT.709

  32. Matrix coefficients : BT.709

  33. Original source medium : Blu-ray


  34. Audio #1

  35. ID : 2

  36. ID in the original source medium : 4352 (0x1100)

  37. Format : DTS XLL

  38. Format/Info : Digital Theater Systems

  39. Commercial name : DTS-HD Master Audio

  40. Codec ID : A_DTS

  41. Duration : 2 h 19 min

  42. Bit rate mode : Variable

  43. Bit rate : 3 266 kb/s

  44. Channel(s) : 6 channels

  45. Channel layout : C L R Ls Rs LFE

  46. Sampling rate : 48.0 kHz

  47. Frame rate : 93.750 FPS (512 SPF)

  48. Bit depth : 24 bits

  49. Compression mode : Lossless

  50. Stream size : 3.17 GiB (11%)

  51. Title : DTS-HD MA 5.1

  52. Language : English

  53. Default : Yes

  54. Forced : No

  55. Original source medium : Blu-ray


  56. Audio #2

  57. ID : 3

  58. ID in the original source medium : 4353 (0x1101)

  59. Format : AC-3

  60. Format/Info : Audio Coding 3

  61. Commercial name : Dolby Digital

  62. Format settings : Dolby Surround

  63. Codec ID : A_AC3

  64. Duration : 2 h 19 min

  65. Bit rate mode : Constant

  66. Bit rate : 224 kb/s

  67. Channel(s) : 2 channels

  68. Channel layout : L R

  69. Sampling rate : 48.0 kHz

  70. Frame rate : 31.250 FPS (1536 SPF)

  71. Compression mode : Lossy

  72. Stream size : 223 MiB (1%)

  73. Title : DD 2.0

  74. Language : English

  75. Service kind : Complete Main

  76. Default : No

  77. Forced : No

  78. Original source medium : Blu-ray


  79. Audio #3

  80. ID : 4

  81. ID in the original source medium : 4354 (0x1102)

  82. Format : AC-3

  83. Format/Info : Audio Coding 3

  84. Commercial name : Dolby Digital

  85. Codec ID : A_AC3

  86. Duration : 2 h 19 min

  87. Bit rate mode : Constant

  88. Bit rate : 448 kb/s

  89. Channel(s) : 6 channels

  90. Channel layout : L R C LFE Ls Rs

  91. Sampling rate : 48.0 kHz

  92. Frame rate : 31.250 FPS (1536 SPF)

  93. Compression mode : Lossy

  94. Stream size : 446 MiB (2%)

  95. Title : DD 5.1

  96. Language : Spanish

  97. Service kind : Complete Main

  98. Default : No

  99. Forced : No

  100. Original source medium : Blu-ray


  101. Audio #4

  102. ID : 5

  103. ID in the original source medium : 4355 (0x1103)

  104. Format : DTS

  105. Format/Info : Digital Theater Systems

  106. Codec ID : A_DTS

  107. Duration : 2 h 19 min

  108. Bit rate mode : Constant

  109. Bit rate : 768 kb/s

  110. Channel(s) : 6 channels

  111. Channel layout : C L R Ls Rs LFE

  112. Sampling rate : 48.0 kHz

  113. Frame rate : 93.750 FPS (512 SPF)

  114. Bit depth : 24 bits

  115. Compression mode : Lossy

  116. Stream size : 764 MiB (3%)

  117. Title : DTS 5.1

  118. Language : French

  119. Default : No

  120. Forced : No

  121. Original source medium : Blu-ray


  122. Audio #5

  123. ID : 6

  124. ID in the original source medium : 4356 (0x1104)

  125. Format : AC-3

  126. Format/Info : Audio Coding 3

  127. Commercial name : Dolby Digital

  128. Codec ID : A_AC3

  129. Duration : 2 h 19 min

  130. Bit rate mode : Constant

  131. Bit rate : 448 kb/s

  132. Channel(s) : 6 channels

  133. Channel layout : L R C LFE Ls Rs

  134. Sampling rate : 48.0 kHz

  135. Frame rate : 31.250 FPS (1536 SPF)

  136. Compression mode : Lossy

  137. Stream size : 446 MiB (2%)

  138. Title : DD 5.1

  139. Language : Portuguese

  140. Service kind : Complete Main

  141. Default : No

  142. Forced : No

  143. Original source medium : Blu-ray


  144. Audio #6

  145. ID : 7

  146. ID in the original source medium : 4357 (0x1105)

  147. Format : AC-3

  148. Format/Info : Audio Coding 3

  149. Commercial name : Dolby Digital

  150. Codec ID : A_AC3

  151. Duration : 2 h 19 min

  152. Bit rate mode : Constant

  153. Bit rate : 224 kb/s

  154. Channel(s) : 2 channels

  155. Channel layout : L R

  156. Sampling rate : 48.0 kHz

  157. Frame rate : 31.250 FPS (1536 SPF)

  158. Compression mode : Lossy

  159. Stream size : 223 MiB (1%)

  160. Title : DD 2.0

  161. Language : English

  162. Service kind : Complete Main

  163. Default : No

  164. Forced : No

  165. Original source medium : Blu-ray


  166. Audio #7

  167. ID : 8

  168. ID in the original source medium : 4358 (0x1106)

  169. Format : AC-3

  170. Format/Info : Audio Coding 3

  171. Commercial name : Dolby Digital

  172. Codec ID : A_AC3

  173. Duration : 2 h 19 min

  174. Bit rate mode : Constant

  175. Bit rate : 224 kb/s

  176. Channel(s) : 2 channels

  177. Channel layout : L R

  178. Sampling rate : 48.0 kHz

  179. Frame rate : 31.250 FPS (1536 SPF)

  180. Compression mode : Lossy

  181. Stream size : 223 MiB (1%)

  182. Title : DD 2.0

  183. Language : English

  184. Service kind : Complete Main

  185. Default : No

  186. Forced : No

  187. Original source medium : Blu-ray


  188. Audio #8

  189. ID : 9

  190. ID in the original source medium : 4359 (0x1107)

  191. Format : AC-3

  192. Format/Info : Audio Coding 3

  193. Commercial name : Dolby Digital

  194. Codec ID : A_AC3

  195. Duration : 2 h 19 min

  196. Bit rate mode : Constant

  197. Bit rate : 224 kb/s

  198. Channel(s) : 2 channels

  199. Channel layout : L R

  200. Sampling rate : 48.0 kHz

  201. Frame rate : 31.250 FPS (1536 SPF)

  202. Compression mode : Lossy

  203. Stream size : 223 MiB (1%)

  204. Title : DD 2.0

  205. Language : English

  206. Service kind : Complete Main

  207. Default : No

  208. Forced : No

  209. Original source medium : Blu-ray


  210. Audio #9

  211. ID : 10

  212. ID in the original source medium : 4360 (0x1108)

  213. Format : AC-3

  214. Format/Info : Audio Coding 3

  215. Commercial name : Dolby Digital

  216. Codec ID : A_AC3

  217. Duration : 2 h 19 min

  218. Bit rate mode : Constant

  219. Bit rate : 224 kb/s

  220. Channel(s) : 2 channels

  221. Channel layout : L R

  222. Sampling rate : 48.0 kHz

  223. Frame rate : 31.250 FPS (1536 SPF)

  224. Compression mode : Lossy

  225. Stream size : 223 MiB (1%)

  226. Title : DD 2.0

  227. Language : English

  228. Service kind : Complete Main

  229. Default : No

  230. Forced : No

  231. Original source medium : Blu-ray


  232. Text #1

  233. ID : 11

  234. Format : UTF-8

  235. Codec ID : S_TEXT/UTF8

  236. Codec ID/Info : UTF-8 Plain Text

  237. Duration : 2 h 17 min

  238. Bit rate : 67 b/s

  239. Count of elements : 1793

  240. Stream size : 67.8 KiB (0%)

  241. Language : English

  242. Default : Yes

  243. Forced : No


  244. Text #2

  245. ID : 12

  246. Format : UTF-8

  247. Codec ID : S_TEXT/UTF8

  248. Codec ID/Info : UTF-8 Plain Text

  249. Duration : 2 h 18 min

  250. Bit rate : 69 b/s

  251. Count of elements : 1923

  252. Stream size : 70.2 KiB (0%)

  253. Title : SDH

  254. Language : English

  255. Default : No

  256. Forced : No


  257. Text #3

  258. ID : 13

  259. ID in the original source medium : 4608 (0x1200)

  260. Format : PGS

  261. Muxing mode : zlib

  262. Codec ID : S_HDMV/PGS

  263. Codec ID/Info : Picture based subtitle format used on BDs/HD-DVDs

  264. Duration : 2 h 18 min

  265. Bit rate : 44.5 kb/s

  266. Count of elements : 3882

  267. Stream size : 44.1 MiB (0%)

  268. Language : English

  269. Default : No

  270. Forced : No

  271. Original source medium : Blu-ray


  272. Text #4

  273. ID : 14

  274. ID in the original source medium : 4609 (0x1201)

  275. Format : PGS

  276. Muxing mode : zlib

  277. Codec ID : S_HDMV/PGS

  278. Codec ID/Info : Picture based subtitle format used on BDs/HD-DVDs

  279. Duration : 2 h 18 min

  280. Bit rate : 41.9 kb/s

  281. Count of elements : 3664

  282. Stream size : 41.4 MiB (0%)

  283. Language : Spanish

  284. Default : No

  285. Forced : No

  286. Original source medium : Blu-ray


  287. Text #5

  288. ID : 15

  289. ID in the original source medium : 4609 (0x1201)

  290. Format : PGS

  291. Muxing mode : zlib

  292. Codec ID : S_HDMV/PGS

  293. Codec ID/Info : Picture based subtitle format used on BDs/HD-DVDs

  294. Duration : 2 h 15 min

  295. Bit rate : 296 b/s

  296. Count of elements : 28

  297. Stream size : 295 KiB (0%)

  298. Language : Spanish

  299. Default : No

  300. Forced : No

  301. Original source medium : Blu-ray


  302. Text #6

  303. ID : 16

  304. ID in the original source medium : 4610 (0x1202)

  305. Format : PGS

  306. Muxing mode : zlib

  307. Codec ID : S_HDMV/PGS

  308. Codec ID/Info : Picture based subtitle format used on BDs/HD-DVDs

  309. Duration : 2 h 17 min

  310. Bit rate : 42.3 kb/s

  311. Count of elements : 3658

  312. Stream size : 41.5 MiB (0%)

  313. Language : French

  314. Default : No

  315. Forced : No

  316. Original source medium : Blu-ray


  317. Text #7

  318. ID : 17

  319. ID in the original source medium : 4610 (0x1202)

  320. Format : PGS

  321. Muxing mode : zlib

  322. Codec ID : S_HDMV/PGS

  323. Codec ID/Info : Picture based subtitle format used on BDs/HD-DVDs

  324. Duration : 2 h 15 min

  325. Bit rate : 438 b/s

  326. Count of elements : 44

  327. Stream size : 437 KiB (0%)

  328. Language : French

  329. Default : No

  330. Forced : No

  331. Original source medium : Blu-ray


  332. Text #8

  333. ID : 18

  334. ID in the original source medium : 4611 (0x1203)

  335. Format : PGS

  336. Muxing mode : zlib

  337. Codec ID : S_HDMV/PGS

  338. Codec ID/Info : Picture based subtitle format used on BDs/HD-DVDs

  339. Duration : 2 h 17 min

  340. Bit rate : 41.5 kb/s

  341. Count of elements : 3794

  342. Stream size : 40.7 MiB (0%)

  343. Language : Portuguese

  344. Default : No

  345. Forced : No

  346. Original source medium : Blu-ray


  347. Text #9

  348. ID : 19

  349. ID in the original source medium : 4611 (0x1203)

  350. Format : PGS

  351. Muxing mode : zlib

  352. Codec ID : S_HDMV/PGS

  353. Codec ID/Info : Picture based subtitle format used on BDs/HD-DVDs

  354. Duration : 2 h 15 min

  355. Bit rate : 197 b/s

  356. Count of elements : 20

  357. Stream size : 197 KiB (0%)

  358. Language : Portuguese

  359. Default : No

  360. Forced : No

  361. Original source medium : Blu-ray


  362. Text #10

  363. ID : 20

  364. ID in the original source medium : 4612 (0x1204)

  365. Format : PGS

  366. Muxing mode : zlib

  367. Codec ID : S_HDMV/PGS

  368. Codec ID/Info : Picture based subtitle format used on BDs/HD-DVDs

  369. Duration : 2 h 17 min

  370. Bit rate : 40.9 kb/s

  371. Count of elements : 3748

  372. Stream size : 40.1 MiB (0%)

  373. Language : Danish

  374. Default : No

  375. Forced : No

  376. Original source medium : Blu-ray


  377. Text #11

  378. ID : 21

  379. ID in the original source medium : 4613 (0x1205)

  380. Format : PGS

  381. Muxing mode : zlib

  382. Codec ID : S_HDMV/PGS

  383. Codec ID/Info : Picture based subtitle format used on BDs/HD-DVDs

  384. Duration : 2 h 17 min

  385. Bit rate : 45.9 kb/s

  386. Count of elements : 3794

  387. Stream size : 44.9 MiB (0%)

  388. Language : Finnish

  389. Default : No

  390. Forced : No

  391. Original source medium : Blu-ray


  392. Text #12

  393. ID : 22

  394. ID in the original source medium : 4614 (0x1206)

  395. Format : PGS

  396. Muxing mode : zlib

  397. Codec ID : S_HDMV/PGS

  398. Codec ID/Info : Picture based subtitle format used on BDs/HD-DVDs

  399. Duration : 2 h 17 min

  400. Bit rate : 41.9 kb/s

  401. Count of elements : 3638

  402. Stream size : 41.1 MiB (0%)

  403. Language : Dutch

  404. Default : No

  405. Forced : No

  406. Original source medium : Blu-ray


  407. Text #13

  408. ID : 23

  409. ID in the original source medium : 4615 (0x1207)

  410. Format : PGS

  411. Muxing mode : zlib

  412. Codec ID : S_HDMV/PGS

  413. Codec ID/Info : Picture based subtitle format used on BDs/HD-DVDs

  414. Duration : 2 h 17 min

  415. Bit rate : 40.1 kb/s

  416. Count of elements : 3768

  417. Stream size : 39.3 MiB (0%)

  418. Language : Norwegian

  419. Default : No

  420. Forced : No

  421. Original source medium : Blu-ray


  422. Text #14

  423. ID : 24

  424. ID in the original source medium : 4616 (0x1208)

  425. Format : PGS

  426. Muxing mode : zlib

  427. Codec ID : S_HDMV/PGS

  428. Codec ID/Info : Picture based subtitle format used on BDs/HD-DVDs

  429. Duration : 2 h 17 min

  430. Bit rate : 43.3 kb/s

  431. Count of elements : 3766

  432. Stream size : 42.4 MiB (0%)

  433. Language : Swedish

  434. Default : No

  435. Forced : No

  436. Original source medium : Blu-ray


  437. Text #15

  438. ID : 25

  439. ID in the original source medium : 4617 (0x1209)

  440. Format : PGS

  441. Muxing mode : zlib

  442. Codec ID : S_HDMV/PGS

  443. Codec ID/Info : Picture based subtitle format used on BDs/HD-DVDs

  444. Duration : 2 h 18 min

  445. Bit rate : 33.5 kb/s

  446. Count of elements : 3670

  447. Stream size : 33.1 MiB (0%)

  448. Language : Chinese

  449. Default : No

  450. Forced : No

  451. Original source medium : Blu-ray


  452. Text #16

  453. ID : 26

  454. ID in the original source medium : 4618 (0x120A)

  455. Format : PGS

  456. Muxing mode : zlib

  457. Codec ID : S_HDMV/PGS

  458. Codec ID/Info : Picture based subtitle format used on BDs/HD-DVDs

  459. Duration : 2 h 18 min

  460. Bit rate : 34.2 kb/s

  461. Count of elements : 3670

  462. Stream size : 33.7 MiB (0%)

  463. Language : Chinese

  464. Default : No

  465. Forced : No

  466. Original source medium : Blu-ray


  467. Text #17

  468. ID : 27

  469. ID in the original source medium : 4619 (0x120B)

  470. Format : PGS

  471. Muxing mode : zlib

  472. Codec ID : S_HDMV/PGS

  473. Codec ID/Info : Picture based subtitle format used on BDs/HD-DVDs

  474. Duration : 2 h 19 min

  475. Bit rate : 53.9 kb/s

  476. Count of elements : 3166

  477. Stream size : 53.6 MiB (0%)

  478. Language : English

  479. Default : No

  480. Forced : No

  481. Original source medium : Blu-ray


  482. Text #18

  483. ID : 28

  484. ID in the original source medium : 4620 (0x120C)

  485. Format : PGS

  486. Muxing mode : zlib

  487. Codec ID : S_HDMV/PGS

  488. Codec ID/Info : Picture based subtitle format used on BDs/HD-DVDs

  489. Duration : 2 h 19 min

  490. Bit rate : 52.3 kb/s

  491. Count of elements : 3202

  492. Stream size : 52.0 MiB (0%)

  493. Language : French

  494. Default : No

  495. Forced : No

  496. Original source medium : Blu-ray


  497. Text #19

  498. ID : 29

  499. ID in the original source medium : 4621 (0x120D)

  500. Format : PGS

  501. Muxing mode : zlib

  502. Codec ID : S_HDMV/PGS

  503. Codec ID/Info : Picture based subtitle format used on BDs/HD-DVDs

  504. Duration : 2 h 19 min

  505. Bit rate : 49.3 kb/s

  506. Count of elements : 3198

  507. Stream size : 49.1 MiB (0%)

  508. Language : Danish

  509. Default : No

  510. Forced : No

  511. Original source medium : Blu-ray


  512. Text #20

  513. ID : 30

  514. ID in the original source medium : 4622 (0x120E)

  515. Format : PGS

  516. Muxing mode : zlib

  517. Codec ID : S_HDMV/PGS

  518. Codec ID/Info : Picture based subtitle format used on BDs/HD-DVDs

  519. Duration : 2 h 19 min

  520. Bit rate : 49.9 kb/s

  521. Count of elements : 3200

  522. Stream size : 49.6 MiB (0%)

  523. Language : Finnish

  524. Default : No

  525. Forced : No

  526. Original source medium : Blu-ray


  527. Text #21

  528. ID : 31

  529. ID in the original source medium : 4623 (0x120F)

  530. Format : PGS

  531. Muxing mode : zlib

  532. Codec ID : S_HDMV/PGS

  533. Codec ID/Info : Picture based subtitle format used on BDs/HD-DVDs

  534. Duration : 2 h 19 min

  535. Bit rate : 51.1 kb/s

  536. Count of elements : 3206

  537. Stream size : 50.8 MiB (0%)

  538. Language : Dutch

  539. Default : No

  540. Forced : No

  541. Original source medium : Blu-ray


  542. Text #22

  543. ID : 32

  544. ID in the original source medium : 4624 (0x1210)

  545. Format : PGS

  546. Muxing mode : zlib

  547. Codec ID : S_HDMV/PGS

  548. Codec ID/Info : Picture based subtitle format used on BDs/HD-DVDs

  549. Duration : 2 h 19 min

  550. Bit rate : 51.1 kb/s

  551. Count of elements : 3202

  552. Stream size : 50.8 MiB (0%)

  553. Language : Norwegian

  554. Default : No

  555. Forced : No

  556. Original source medium : Blu-ray


  557. Text #23

  558. ID : 33

  559. ID in the original source medium : 4625 (0x1211)

  560. Format : PGS

  561. Muxing mode : zlib

  562. Codec ID : S_HDMV/PGS

  563. Codec ID/Info : Picture based subtitle format used on BDs/HD-DVDs

  564. Duration : 2 h 19 min

  565. Bit rate : 48.5 kb/s

  566. Count of elements : 3206

  567. Stream size : 48.2 MiB (0%)

  568. Language : Swedish

  569. Default : No

  570. Forced : No

  571. Original source medium : Blu-ray


  572. Text #24

  573. ID : 34

  574. ID in the original source medium : 4626 (0x1212)

  575. Format : PGS

  576. Muxing mode : zlib

  577. Codec ID : S_HDMV/PGS

  578. Codec ID/Info : Picture based subtitle format used on BDs/HD-DVDs

  579. Duration : 2 h 19 min

  580. Bit rate : 65.8 kb/s

  581. Count of elements : 4074

  582. Stream size : 65.5 MiB (0%)

  583. Language : English

  584. Default : No

  585. Forced : No

  586. Original source medium : Blu-ray


  587. Text #25

  588. ID : 35

  589. ID in the original source medium : 4627 (0x1213)

  590. Format : PGS

  591. Muxing mode : zlib

  592. Codec ID : S_HDMV/PGS

  593. Codec ID/Info : Picture based subtitle format used on BDs/HD-DVDs

  594. Duration : 2 h 19 min

  595. Bit rate : 47.9 kb/s

  596. Count of elements : 3720

  597. Stream size : 47.7 MiB (0%)

  598. Language : French

  599. Default : No

  600. Forced : No

  601. Original source medium : Blu-ray


  602. Text #26

  603. ID : 36

  604. ID in the original source medium : 4628 (0x1214)

  605. Format : PGS

  606. Muxing mode : zlib

  607. Codec ID : S_HDMV/PGS

  608. Codec ID/Info : Picture based subtitle format used on BDs/HD-DVDs

  609. Duration : 2 h 19 min

  610. Bit rate : 53.2 kb/s

  611. Count of elements : 3968

  612. Stream size : 52.9 MiB (0%)

  613. Language : Danish

  614. Default : No

  615. Forced : No

  616. Original source medium : Blu-ray


  617. Text #27

  618. ID : 37

  619. ID in the original source medium : 4629 (0x1215)

  620. Format : PGS

  621. Muxing mode : zlib

  622. Codec ID : S_HDMV/PGS

  623. Codec ID/Info : Picture based subtitle format used on BDs/HD-DVDs

  624. Duration : 2 h 19 min

  625. Bit rate : 52.6 kb/s

  626. Count of elements : 3968

  627. Stream size : 52.4 MiB (0%)

  628. Language : Finnish

  629. Default : No

  630. Forced : No

  631. Original source medium : Blu-ray


  632. Text #28

  633. ID : 38

  634. ID in the original source medium : 4630 (0x1216)

  635. Format : PGS

  636. Muxing mode : zlib

  637. Codec ID : S_HDMV/PGS

  638. Codec ID/Info : Picture based subtitle format used on BDs/HD-DVDs

  639. Duration : 2 h 19 min

  640. Bit rate : 55.6 kb/s

  641. Count of elements : 3968

  642. Stream size : 55.3 MiB (0%)

  643. Language : Dutch

  644. Default : No

  645. Forced : No

  646. Original source medium : Blu-ray


  647. Text #29

  648. ID : 39

  649. ID in the original source medium : 4631 (0x1217)

  650. Format : PGS

  651. Muxing mode : zlib

  652. Codec ID : S_HDMV/PGS

  653. Codec ID/Info : Picture based subtitle format used on BDs/HD-DVDs

  654. Duration : 2 h 19 min

  655. Bit rate : 54.7 kb/s

  656. Count of elements : 3968

  657. Stream size : 54.4 MiB (0%)

  658. Language : Norwegian

  659. Default : No

  660. Forced : No

  661. Original source medium : Blu-ray


  662. Text #30

  663. ID : 40

  664. ID in the original source medium : 4632 (0x1218)

  665. Format : PGS

  666. Muxing mode : zlib

  667. Codec ID : S_HDMV/PGS

  668. Codec ID/Info : Picture based subtitle format used on BDs/HD-DVDs

  669. Duration : 2 h 19 min

  670. Bit rate : 51.9 kb/s

  671. Count of elements : 3970

  672. Stream size : 51.6 MiB (0%)

  673. Language : Swedish

  674. Default : No

  675. Forced : No

  676. Original source medium : Blu-ray


  677. Text #31

  678. ID : 41

  679. ID in the original source medium : 4633 (0x1219)

  680. Format : PGS

  681. Muxing mode : zlib

  682. Codec ID : S_HDMV/PGS

  683. Codec ID/Info : Picture based subtitle format used on BDs/HD-DVDs

  684. Duration : 2 h 19 min

  685. Bit rate : 34.9 kb/s

  686. Count of elements : 2170

  687. Stream size : 34.8 MiB (0%)

  688. Language : English

  689. Default : No

  690. Forced : No

  691. Original source medium : Blu-ray


  692. Text #32

  693. ID : 42

  694. ID in the original source medium : 4634 (0x121A)

  695. Format : PGS

  696. Muxing mode : zlib

  697. Codec ID : S_HDMV/PGS

  698. Codec ID/Info : Picture based subtitle format used on BDs/HD-DVDs

  699. Duration : 2 h 19 min

  700. Bit rate : 30.9 kb/s

  701. Count of elements : 2153

  702. Stream size : 30.7 MiB (0%)

  703. Language : French

  704. Default : No

  705. Forced : No

  706. Original source medium : Blu-ray


  707. Text #33

  708. ID : 43

  709. ID in the original source medium : 4635 (0x121B)

  710. Format : PGS

  711. Muxing mode : zlib

  712. Codec ID : S_HDMV/PGS

  713. Codec ID/Info : Picture based subtitle format used on BDs/HD-DVDs

  714. Duration : 2 h 19 min

  715. Bit rate : 49.4 kb/s

  716. Count of elements : 3062

  717. Stream size : 49.2 MiB (0%)

  718. Language : English

  719. Default : No

  720. Forced : No

  721. Original source medium : Blu-ray


  722. Text #34

  723. ID : 44

  724. ID in the original source medium : 4636 (0x121C)

  725. Format : PGS

  726. Muxing mode : zlib

  727. Codec ID : S_HDMV/PGS

  728. Codec ID/Info : Picture based subtitle format used on BDs/HD-DVDs

  729. Duration : 2 h 19 min

  730. Bit rate : 46.2 kb/s

  731. Count of elements : 3010

  732. Stream size : 46.0 MiB (0%)

  733. Language : French

  734. Default : No

  735. Forced : No

  736. Original source medium : Blu-ray


  737. Menu

  738. 00:00:00.000 : en:Chapter 01

  739. 00:02:08.378 : en:Chapter 02

  740. 00:03:54.817 : en:Chapter 03

  741. 00:04:46.327 : en:Chapter 04

  742. 00:06:21.923 : en:Chapter 05

  743. 00:10:22.204 : en:Chapter 06

  744. 00:11:34.902 : en:Chapter 07

  745. 00:19:13.569 : en:Chapter 08

  746. 00:21:41.174 : en:Chapter 09

  747. 00:25:48.004 : en:Chapter 10

  748. 00:29:09.330 : en:Chapter 11

  749. 00:32:27.195 : en:Chapter 12

  750. 00:34:10.465 : en:Chapter 13

  751. 00:35:57.947 : en:Chapter 14

  752. 00:41:36.994 : en:Chapter 15

  753. 00:47:18.961 : en:Chapter 16

  754. 00:48:37.873 : en:Chapter 17

  755. 01:00:18.281 : en:Chapter 18

  756. 01:01:56.254 : en:Chapter 19

  757. 01:09:48.434 : en:Chapter 20

  758. 01:14:57.951 : en:Chapter 21

  759. 01:15:47.626 : en:Chapter 22

  760. 01:19:35.854 : en:Chapter 23

  761. 01:21:29.467 : en:Chapter 24

  762. 01:27:38.544 : en:Chapter 25

  763. 01:35:36.981 : en:Chapter 26

  764. 01:37:48.070 : en:Chapter 27

  765. 01:41:26.789 : en:Chapter 28

  766. 01:45:07.467 : en:Chapter 29

  767. 01:47:58.180 : en:Chapter 30

  768. 01:50:34.878 : en:Chapter 31

  769. 01:56:53.172 : en:Chapter 32

  770. 02:00:36.812 : en:Chapter 33

  771. 02:05:55.714 : en:Chapter 34

  772. 02:09:38.353 : en:Chapter 35

  773. 02:15:53.979 : en:Chapter 36

复制代码

搏击俱乐部[中文字幕].Fight.Club.1999.REMASTERED.1080p.BluRay.REMUX.AVC.DTS HD.MA.5.1 FGT 29.00GB  欧美电影  第2张 搏击俱乐部[中文字幕].Fight.Club.1999.REMASTERED.1080p.BluRay.REMUX.AVC.DTS HD.MA.5.1 FGT 29.00GB  欧美电影  第3张 搏击俱乐部[中文字幕].Fight.Club.1999.REMASTERED.1080p.BluRay.REMUX.AVC.DTS HD.MA.5.1 FGT 29.00GB  欧美电影  第4张



文件下载


除非特别注明,本文『搏击俱乐部[中文字幕].Fight.Club.1999.REMASTERED.1080p.BluRay.REMUX.AVC.DTS-HD.MA.5.1-FGT 29.00GB』来源于互联网机器人自动抓取,非本站原创。 浮游电影网不对本文拥有版权,如有侵犯,请联系邮箱:fuyouu#yandex.com[#换成@]投诉。我们会在15个工作日内删除。 但烦请转载时请标明出处:“本文转载于『浮游电影网』,原文地址:https://www.fuyouu.com/21423.html

评论吧骚年!

发表你的见解   

昵称*

E-mail*(建议输入,以便收到博主回复的提示邮件)

验证码*

您可以使用eMule或eMule Mod(Windows)、aMule(Win、Linux、Mac)等软件下载eD2k链接。。
eMule收藏集(.emulecollection)文件是您选中的所有链接的列表文件。eMule可以直接下载它们。
按住SHIFT键选择可以选中多个选择框。
可用文件名和大小选择器来选择文件。
文件名选择器帮您根据文件名称或后缀来选择文件。不分大小写。
符号使用:
和:空格( )、+
不包含:-
或:|
转义:一对英文引号("");
匹配开头:^
匹配结尾:$
例如:
选中所有名称中包含有“eMule”或“0.49c”字眼,但不包含有“exe”字眼的:emule|0.49c -exe
选中所有名称的开头是“eMule”,结尾是“0.49c”的:^emule 0.49c$
选中所有名称中带有“eMule 0.49c”的(必须是“eMule 0.49c”,中间没有别的字符,不能是“eMule fake 0.49c”),需要转义:"emule 0.49c"
大小选择器帮您根据文件大小选择文件。