当前位置: 首页 >> 欧美电影 >> 七宗罪[中文字幕].Se7en.1995.REMASTERED.1080p.BluRay.REMUX.VC-1.DTS-HD.MA.7.1-FGT 29.36GB >> 正文

七宗罪[中文字幕].Se7en.1995.REMASTERED.1080p.BluRay.REMUX.VC-1.DTS-HD.MA.7.1-FGT 29.36GB

2022年04月18日 14:52:32     电影发布:来源于网络     电影分类:欧美电影     评论(0)    

七宗罪[中文字幕].Se7en.1995.REMASTERED.1080p.BluRay.REMUX.VC 1.DTS HD.MA.7.1 FGT 29.36GB  欧美电影  第1张

◎译 名 七宗罪 / 火线追缉令(台) / 7宗罪 / Seven

◎片 名 Se7en

◎年 代 1995

◎产 地 美国

◎类 别 剧情 / 悬疑 / 惊悚 / 犯罪

◎语 言 英语

◎上映日期 1995-09-22(美国)

◎IMDb链接 https://www.imdb.com/title/tt0114369/

◎豆瓣评分 8.8/10 (863674人评价)

◎豆瓣链接 https://movie.douban.com/subject/1292223/

◎片 长 127分钟

◎导 演 大卫·芬奇 David Fincher (id:1012521)

◎编 剧 安德鲁·凯文·沃克 Andrew Kevin Walker (id:1022840)

◎演 员 摩根·弗里曼 Morgan Freeman (id:1054534)

布拉德·皮特 Brad Pitt (id:1054452)

凯文·史派西 Kevin Spacey (id:1054432)

格温妮斯·帕特洛 Gwyneth Paltrow (id:1018985)

安德鲁·凯文·沃克 Andrew Kevin Walker (id:1022840)

约翰·卡西尼 John Cassini (id:1280258)

雷格·E·凯蒂 Reg E. Cathey (id:1077481)

李·厄米 R. Lee Ermey (id:1055710)

理查德·希夫 Richard Schiff (id:1019089)

约翰·C·麦金雷 John C. McGinley (id:1025189)

利兰·奥瑟 Leland Orser (id:1025230)

查尔斯·达顿 Charles S. Dutton (id:1054587)

哈里斯·萨维德斯 Harris Savides (id:1027491)

弗兰斯·安格拉德 France Anglade (id:1060563)

迈克尔·麦斯 Michael Massee (id:1329913)

理查德·波特诺 Richard Portnow (id:1007093)

迈克尔·雷德·麦基 Michael Reid MacKay (id:1125846)

莱克西·比格姆 Lexie Bigham (id:1066185)

安德烈·胡勒斯 Endre Hules (id:1419978)

霍华德·肖 Howard Shore (id:1027953)

达吕斯·康第 Darius Khondji (id:1028011)

理查德·弗朗西斯-布鲁斯 Richard Francis-Bruce (id:1037415)

阿瑟·马克斯 Arthur Max (id:1045673)

Gary Wissner Gary Wissner (id:1009189)

◎简 介

“暴食”、“贪婪”、“懒惰”、“嫉妒”、“骄傲”、“淫欲”、“愤怒”,这是天主教教义所指的人性七宗罪。城市中发生的连坏杀人案,死者恰好都是犯有这些教义的人。凶手故弄玄虚的作案手法,令资深冷静的警员沙摩塞(摩根?弗里曼 Morgan Freeman 饰)和血气方刚的新扎警员米尔斯(布拉德?皮特 Brad Pitt 饰)都陷入了破案的谜团中。他们去图书馆研读但丁的《神曲》,企图从人间地狱的描绘中找到线索,最后从宗教文学哲学的世界中找到了凶手作案计划和手段的蛛丝马迹。凶手前来投案自首,这令众人都松了一口气,以为案件就此结束,怎料还是逃不出七宗罪的杀人逻辑,这次凶手瞄准的目标,是那个犯了“愤怒”罪的人……

◎获奖情况 (共4项)

第68届奥斯卡金像奖 (1996)

最佳剪辑(提名)

└──理查德·弗朗西斯-布鲁斯 (id:1037415)

第49届英国电影学院奖 (1996)

电影奖 最佳原创剧本(提名)

└──安德鲁·凯文·沃克 (id:1022840)

第20届日本电影学院奖 (1997)

最佳外语片(提名)

第21届报知映画赏 (1996)

海外作品奖

└──大卫·芬奇 (id:1012521)

  1. Video

  2. ID : 1

  3. ID in the original source medium : 4113 (0x1011)

  4. Format : VC-1

  5. Format profile : [email protected]

  6. Codec ID : V_MS/VFW/FOURCC / WVC1

  7. Codec ID/Hint : Microsoft

  8. Duration : 2 h 6 min

  9. Bit rate : 25.4 Mb/s

  10. Width : 1 920 pixels

  11. Height : 1 080 pixels

  12. Display aspect ratio : 16:9

  13. Frame rate mode : Constant

  14. Frame rate : 23.976 (24000/1001/53354) FPS

  15. Color space : YUV

  16. Chroma subsampling : 4:2:0

  17. Bit depth : 8 bits

  18. Scan type : Progressive

  19. Compression mode : Lossy

  20. Bits/(Pixel*Frame) : 0.512

  21. Stream size : 22.5 GiB (77%)

  22. Language : English

  23. Default : No

  24. Forced : No

  25. Original source medium : Blu-ray


  26. Audio #1

  27. ID : 2

  28. ID in the original source medium : 4352 (0x1100)

  29. Format : DTS ES XLL

  30. Format/Info : Digital Theater Systems

  31. Commercial name : DTS-HD Master Audio

  32. Codec ID : A_DTS

  33. Duration : 2 h 6 min

  34. Bit rate mode : Variable

  35. Bit rate : 5 447 kb/s

  36. Channel(s) : 8 channels

  37. Channel layout : C L R Ls Rs LFE Lb Rb

  38. Sampling rate : 48.0 kHz

  39. Frame rate : 93.750 FPS (512 SPF)

  40. Bit depth : 24 bits

  41. Compression mode : Lossless

  42. Stream size : 4.83 GiB (16%)

  43. Title : DTS-HD MA 7.1

  44. Language : English

  45. Default : Yes

  46. Forced : No

  47. Original source medium : Blu-ray


  48. Audio #2

  49. ID : 3

  50. ID in the original source medium : 4353 (0x1101)

  51. Format : AC-3

  52. Format/Info : Audio Coding 3

  53. Commercial name : Dolby Digital

  54. Format settings : Dolby Surround

  55. Codec ID : A_AC3

  56. Duration : 2 h 6 min

  57. Bit rate mode : Constant

  58. Bit rate : 192 kb/s

  59. Channel(s) : 2 channels

  60. Channel layout : L R

  61. Sampling rate : 48.0 kHz

  62. Frame rate : 31.250 FPS (1536 SPF)

  63. Compression mode : Lossy

  64. Stream size : 174 MiB (0%)

  65. Title : DD 2.0

  66. Language : Czech

  67. Service kind : Complete Main

  68. Default : No

  69. Forced : No

  70. Original source medium : Blu-ray


  71. Audio #3

  72. ID : 4

  73. ID in the original source medium : 4354 (0x1102)

  74. Format : AC-3

  75. Format/Info : Audio Coding 3

  76. Commercial name : Dolby Digital

  77. Codec ID : A_AC3

  78. Duration : 2 h 6 min

  79. Bit rate mode : Constant

  80. Bit rate : 640 kb/s

  81. Channel(s) : 6 channels

  82. Channel layout : L R C LFE Ls Rs

  83. Sampling rate : 48.0 kHz

  84. Frame rate : 31.250 FPS (1536 SPF)

  85. Compression mode : Lossy

  86. Stream size : 581 MiB (2%)

  87. Title : DD 5.1

  88. Language : Polish

  89. Service kind : Complete Main

  90. Default : No

  91. Forced : No

  92. Original source medium : Blu-ray


  93. Audio #4

  94. ID : 5

  95. ID in the original source medium : 4355 (0x1103)

  96. Format : AC-3

  97. Format/Info : Audio Coding 3

  98. Commercial name : Dolby Digital

  99. Format settings : Dolby Surround

  100. Codec ID : A_AC3

  101. Duration : 2 h 6 min

  102. Bit rate mode : Constant

  103. Bit rate : 192 kb/s

  104. Channel(s) : 2 channels

  105. Channel layout : L R

  106. Sampling rate : 48.0 kHz

  107. Frame rate : 31.250 FPS (1536 SPF)

  108. Compression mode : Lossy

  109. Stream size : 174 MiB (0%)

  110. Title : DD 2.0

  111. Language : English

  112. Service kind : Complete Main

  113. Default : No

  114. Forced : No

  115. Original source medium : Blu-ray


  116. Audio #5

  117. ID : 6

  118. ID in the original source medium : 4356 (0x1104)

  119. Format : AC-3

  120. Format/Info : Audio Coding 3

  121. Commercial name : Dolby Digital

  122. Format settings : Dolby Surround

  123. Codec ID : A_AC3

  124. Duration : 2 h 6 min

  125. Bit rate mode : Constant

  126. Bit rate : 192 kb/s

  127. Channel(s) : 2 channels

  128. Channel layout : L R

  129. Sampling rate : 48.0 kHz

  130. Frame rate : 31.250 FPS (1536 SPF)

  131. Compression mode : Lossy

  132. Stream size : 174 MiB (0%)

  133. Title : DD 2.0

  134. Language : English

  135. Service kind : Complete Main

  136. Default : No

  137. Forced : No

  138. Original source medium : Blu-ray


  139. Audio #6

  140. ID : 7

  141. ID in the original source medium : 4357 (0x1105)

  142. Format : AC-3

  143. Format/Info : Audio Coding 3

  144. Commercial name : Dolby Digital

  145. Format settings : Dolby Surround

  146. Codec ID : A_AC3

  147. Duration : 2 h 6 min

  148. Bit rate mode : Constant

  149. Bit rate : 192 kb/s

  150. Channel(s) : 2 channels

  151. Channel layout : L R

  152. Sampling rate : 48.0 kHz

  153. Frame rate : 31.250 FPS (1536 SPF)

  154. Compression mode : Lossy

  155. Stream size : 174 MiB (0%)

  156. Title : DD 2.0

  157. Language : English

  158. Service kind : Complete Main

  159. Default : No

  160. Forced : No

  161. Original source medium : Blu-ray


  162. Audio #7

  163. ID : 8

  164. ID in the original source medium : 4358 (0x1106)

  165. Format : AC-3

  166. Format/Info : Audio Coding 3

  167. Commercial name : Dolby Digital

  168. Codec ID : A_AC3

  169. Duration : 2 h 6 min

  170. Bit rate mode : Constant

  171. Bit rate : 640 kb/s

  172. Channel(s) : 6 channels

  173. Channel layout : L R C LFE Ls Rs

  174. Sampling rate : 48.0 kHz

  175. Frame rate : 31.250 FPS (1536 SPF)

  176. Compression mode : Lossy

  177. Stream size : 581 MiB (2%)

  178. Title : DD 5.1

  179. Language : English

  180. Service kind : Complete Main

  181. Default : No

  182. Forced : No

  183. Original source medium : Blu-ray


  184. Text #1

  185. ID : 9

  186. Format : UTF-8

  187. Codec ID : S_TEXT/UTF8

  188. Codec ID/Info : UTF-8 Plain Text

  189. Duration : 2 h 0 min

  190. Bit rate : 60 b/s

  191. Count of elements : 1500

  192. Stream size : 53.7 KiB (0%)

  193. Language : English

  194. Default : Yes

  195. Forced : No


  196. Text #2

  197. ID : 10

  198. Format : UTF-8

  199. Codec ID : S_TEXT/UTF8

  200. Codec ID/Info : UTF-8 Plain Text

  201. Duration : 2 h 6 min

  202. Bit rate : 60 b/s

  203. Count of elements : 1614

  204. Stream size : 55.6 KiB (0%)

  205. Title : SDH

  206. Language : English

  207. Default : No

  208. Forced : No


  209. Text #3

  210. ID : 11

  211. ID in the original source medium : 4608 (0x1200)

  212. Format : PGS

  213. Muxing mode : zlib

  214. Codec ID : S_HDMV/PGS

  215. Codec ID/Info : Picture based subtitle format used on BDs/HD-DVDs

  216. Duration : 2 h 6 min

  217. Bit rate : 35.7 kb/s

  218. Count of elements : 3324

  219. Stream size : 32.2 MiB (0%)

  220. Language : English

  221. Default : No

  222. Forced : No

  223. Original source medium : Blu-ray


  224. Text #4

  225. ID : 12

  226. ID in the original source medium : 4609 (0x1201)

  227. Format : PGS

  228. Muxing mode : zlib

  229. Codec ID : S_HDMV/PGS

  230. Codec ID/Info : Picture based subtitle format used on BDs/HD-DVDs

  231. Duration : 2 h 0 min

  232. Bit rate : 33.7 kb/s

  233. Count of elements : 2811

  234. Stream size : 29.2 MiB (0%)

  235. Language : Dutch

  236. Default : No

  237. Forced : No

  238. Original source medium : Blu-ray


  239. Text #5

  240. ID : 13

  241. ID in the original source medium : 4610 (0x1202)

  242. Format : PGS

  243. Muxing mode : zlib

  244. Codec ID : S_HDMV/PGS

  245. Codec ID/Info : Picture based subtitle format used on BDs/HD-DVDs

  246. Duration : 2 h 0 min

  247. Bit rate : 29.8 kb/s

  248. Count of elements : 3166

  249. Stream size : 25.8 MiB (0%)

  250. Language : Czech

  251. Default : No

  252. Forced : No

  253. Original source medium : Blu-ray


  254. Text #6

  255. ID : 14

  256. ID in the original source medium : 4611 (0x1203)

  257. Format : PGS

  258. Muxing mode : zlib

  259. Codec ID : S_HDMV/PGS

  260. Codec ID/Info : Picture based subtitle format used on BDs/HD-DVDs

  261. Duration : 2 h 0 min

  262. Bit rate : 32.7 kb/s

  263. Count of elements : 2965

  264. Stream size : 28.3 MiB (0%)

  265. Language : Danish

  266. Default : No

  267. Forced : No

  268. Original source medium : Blu-ray


  269. Text #7

  270. ID : 15

  271. ID in the original source medium : 4612 (0x1204)

  272. Format : PGS

  273. Muxing mode : zlib

  274. Codec ID : S_HDMV/PGS

  275. Codec ID/Info : Picture based subtitle format used on BDs/HD-DVDs

  276. Duration : 2 h 0 min

  277. Bit rate : 31.0 kb/s

  278. Count of elements : 3033

  279. Stream size : 26.9 MiB (0%)

  280. Language : Finnish

  281. Default : No

  282. Forced : No

  283. Original source medium : Blu-ray


  284. Text #8

  285. ID : 16

  286. ID in the original source medium : 4613 (0x1205)

  287. Format : PGS

  288. Muxing mode : zlib

  289. Codec ID : S_HDMV/PGS

  290. Codec ID/Info : Picture based subtitle format used on BDs/HD-DVDs

  291. Duration : 2 h 0 min

  292. Bit rate : 32.6 kb/s

  293. Count of elements : 3133

  294. Stream size : 28.2 MiB (0%)

  295. Language : Norwegian

  296. Default : No

  297. Forced : No

  298. Original source medium : Blu-ray


  299. Text #9

  300. ID : 17

  301. ID in the original source medium : 4614 (0x1206)

  302. Format : PGS

  303. Muxing mode : zlib

  304. Codec ID : S_HDMV/PGS

  305. Codec ID/Info : Picture based subtitle format used on BDs/HD-DVDs

  306. Duration : 2 h 0 min

  307. Bit rate : 29.3 kb/s

  308. Count of elements : 3077

  309. Stream size : 25.3 MiB (0%)

  310. Language : Polish

  311. Default : No

  312. Forced : No

  313. Original source medium : Blu-ray


  314. Text #10

  315. ID : 18

  316. ID in the original source medium : 4615 (0x1207)

  317. Format : PGS

  318. Muxing mode : zlib

  319. Codec ID : S_HDMV/PGS

  320. Codec ID/Info : Picture based subtitle format used on BDs/HD-DVDs

  321. Duration : 2 h 0 min

  322. Bit rate : 29.1 kb/s

  323. Count of elements : 2522

  324. Stream size : 25.2 MiB (0%)

  325. Language : Portuguese

  326. Default : No

  327. Forced : No

  328. Original source medium : Blu-ray


  329. Text #11

  330. ID : 19

  331. ID in the original source medium : 4616 (0x1208)

  332. Format : PGS

  333. Muxing mode : zlib

  334. Codec ID : S_HDMV/PGS

  335. Codec ID/Info : Picture based subtitle format used on BDs/HD-DVDs

  336. Duration : 2 h 0 min

  337. Bit rate : 31.2 kb/s

  338. Count of elements : 3143

  339. Stream size : 27.0 MiB (0%)

  340. Language : Swedish

  341. Default : No

  342. Forced : No

  343. Original source medium : Blu-ray


  344. Text #12

  345. ID : 20

  346. ID in the original source medium : 4617 (0x1209)

  347. Format : PGS

  348. Muxing mode : zlib

  349. Codec ID : S_HDMV/PGS

  350. Codec ID/Info : Picture based subtitle format used on BDs/HD-DVDs

  351. Duration : 1 h 55 min

  352. Bit rate : 689 b/s

  353. Count of elements : 92

  354. Stream size : 584 KiB (0%)

  355. Language : Czech

  356. Default : No

  357. Forced : No

  358. Original source medium : Blu-ray


  359. Text #13

  360. ID : 21

  361. ID in the original source medium : 4618 (0x120A)

  362. Format : PGS

  363. Muxing mode : zlib

  364. Codec ID : S_HDMV/PGS

  365. Codec ID/Info : Picture based subtitle format used on BDs/HD-DVDs

  366. Duration : 2 h 0 min

  367. Bit rate : 27.9 kb/s

  368. Count of elements : 2910

  369. Stream size : 24.1 MiB (0%)

  370. Language : Chinese

  371. Default : No

  372. Forced : No

  373. Original source medium : Blu-ray


  374. Text #14

  375. ID : 22

  376. ID in the original source medium : 4619 (0x120B)

  377. Format : PGS

  378. Muxing mode : zlib

  379. Codec ID : S_HDMV/PGS

  380. Codec ID/Info : Picture based subtitle format used on BDs/HD-DVDs

  381. Duration : 2 h 0 min

  382. Bit rate : 28.6 kb/s

  383. Count of elements : 2910

  384. Stream size : 24.7 MiB (0%)

  385. Language : Chinese

  386. Default : No

  387. Forced : No

  388. Original source medium : Blu-ray


  389. Text #15

  390. ID : 23

  391. ID in the original source medium : 4620 (0x120C)

  392. Format : PGS

  393. Muxing mode : zlib

  394. Codec ID : S_HDMV/PGS

  395. Codec ID/Info : Picture based subtitle format used on BDs/HD-DVDs

  396. Duration : 2 h 0 min

  397. Bit rate : 50.1 kb/s

  398. Count of elements : 2910

  399. Stream size : 43.3 MiB (0%)

  400. Language : Chinese

  401. Default : No

  402. Forced : No

  403. Original source medium : Blu-ray


  404. Text #16

  405. ID : 24

  406. ID in the original source medium : 4621 (0x120D)

  407. Format : PGS

  408. Muxing mode : zlib

  409. Codec ID : S_HDMV/PGS

  410. Codec ID/Info : Picture based subtitle format used on BDs/HD-DVDs

  411. Duration : 2 h 0 min

  412. Bit rate : 50.7 kb/s

  413. Count of elements : 2910

  414. Stream size : 43.9 MiB (0%)

  415. Language : Chinese

  416. Default : No

  417. Forced : No

  418. Original source medium : Blu-ray


  419. Menu

  420. 00:00:00.000 : en:Chapter 01

  421. 00:04:11.251 : en:Chapter 02

  422. 00:06:19.212 : en:Chapter 03

  423. 00:07:33.661 : en:Chapter 04

  424. 00:14:47.469 : en:Chapter 05

  425. 00:17:07.401 : en:Chapter 06

  426. 00:18:11.423 : en:Chapter 07

  427. 00:21:42.134 : en:Chapter 08

  428. 00:24:26.715 : en:Chapter 09

  429. 00:29:28.224 : en:Chapter 10

  430. 00:30:26.991 : en:Chapter 11

  431. 00:33:13.116 : en:Chapter 12

  432. 00:37:28.412 : en:Chapter 13

  433. 00:42:23.541 : en:Chapter 14

  434. 00:43:32.818 : en:Chapter 15

  435. 00:47:43.193 : en:Chapter 16

  436. 00:50:18.056 : en:Chapter 17

  437. 00:54:24.803 : en:Chapter 18

  438. 00:57:28.153 : en:Chapter 19

  439. 01:01:45.118 : en:Chapter 20

  440. 01:04:19.397 : en:Chapter 21

  441. 01:07:26.542 : en:Chapter 22

  442. 01:14:44.980 : en:Chapter 23

  443. 01:20:33.995 : en:Chapter 24

  444. 01:24:07.250 : en:Chapter 25

  445. 01:25:04.015 : en:Chapter 26

  446. 01:28:15.456 : en:Chapter 27

  447. 01:33:05.162 : en:Chapter 28

  448. 01:33:58.507 : en:Chapter 29

  449. 01:36:46.926 : en:Chapter 30

  450. 01:39:04.438 : en:Chapter 31

  451. 01:40:53.756 : en:Chapter 32

  452. 01:44:04.738 : en:Chapter 33

  453. 01:50:53.813 : en:Chapter 34

  454. 01:53:05.862 : en:Chapter 35

  455. 01:56:56.551 : en:Chapter 36

  456. 02:02:00.313 : en:Chapter 37

复制代码

七宗罪[中文字幕].Se7en.1995.REMASTERED.1080p.BluRay.REMUX.VC 1.DTS HD.MA.7.1 FGT 29.36GB  欧美电影  第2张 七宗罪[中文字幕].Se7en.1995.REMASTERED.1080p.BluRay.REMUX.VC 1.DTS HD.MA.7.1 FGT 29.36GB  欧美电影  第3张 七宗罪[中文字幕].Se7en.1995.REMASTERED.1080p.BluRay.REMUX.VC 1.DTS HD.MA.7.1 FGT 29.36GB  欧美电影  第4张



文件下载


除非特别注明,本文『七宗罪[中文字幕].Se7en.1995.REMASTERED.1080p.BluRay.REMUX.VC-1.DTS-HD.MA.7.1-FGT 29.36GB』来源于互联网机器人自动抓取,非本站原创。 浮游电影网不对本文拥有版权,如有侵犯,请联系邮箱:fuyouu#yandex.com[#换成@]投诉。我们会在15个工作日内删除。 但烦请转载时请标明出处:“本文转载于『浮游电影网』,原文地址:https://www.fuyouu.com/21421.html

评论吧骚年!

发表你的见解   

昵称*

E-mail*(建议输入,以便收到博主回复的提示邮件)

验证码*

您可以使用eMule或eMule Mod(Windows)、aMule(Win、Linux、Mac)等软件下载eD2k链接。。
eMule收藏集(.emulecollection)文件是您选中的所有链接的列表文件。eMule可以直接下载它们。
按住SHIFT键选择可以选中多个选择框。
可用文件名和大小选择器来选择文件。
文件名选择器帮您根据文件名称或后缀来选择文件。不分大小写。
符号使用:
和:空格( )、+
不包含:-
或:|
转义:一对英文引号("");
匹配开头:^
匹配结尾:$
例如:
选中所有名称中包含有“eMule”或“0.49c”字眼,但不包含有“exe”字眼的:emule|0.49c -exe
选中所有名称的开头是“eMule”,结尾是“0.49c”的:^emule 0.49c$
选中所有名称中带有“eMule 0.49c”的(必须是“eMule 0.49c”,中间没有别的字符,不能是“eMule fake 0.49c”),需要转义:"emule 0.49c"
大小选择器帮您根据文件大小选择文件。