当前位置: 首页 >> 国产电影 >> 健忘村[杜比视界版本][国语配音/中文字幕].The.Village.of.No.Return.2017.2160p.WEB-DL.H265.DV.DDP5.1.Atmos-HDBWEB 5.24GB >> 正文

健忘村[杜比视界版本][国语配音/中文字幕].The.Village.of.No.Return.2017.2160p.WEB-DL.H265.DV.DDP5.1.Atmos-HDBWEB 5.24GB

2022年04月18日 14:51:33     电影发布:来源于网络     电影分类:国产电影     评论(0)    

健忘村[杜比视界版本][国语配音/中文字幕].The.Village.of.No.Return.2017.2160p.WEB DL.H265.DV.DDP5.1.Atmos HDBWEB 5.24GB  国产电影  第1张

◎译 名 健忘村 / The Village of No Return

◎年 代 2017

◎产 地 中国大陆 / 中国台湾

◎类 别 剧情 / 喜剧 / 奇幻 / 古装

◎语 言 汉语普通话

◎上映日期 2017-01-28(中国大陆)

◎IMDb链接 https://www.imdb.com/title/tt6461526/

◎豆瓣评分 6.7/10 (88812人评价)

◎豆瓣链接 https://movie.douban.com/subject/26717795/

◎片 长 116分钟

◎导 演 陈玉勋 Yu-Hsun Chen (id:1280588)

◎编 剧 陈玉勋 Yu-Hsun Chen (id:1280588)

张耀升 Yao-sheng Chang (id:1365734)

◎演 员 舒淇 Qi Shu (id:1138320)

王千源 Qianyuan Wang (id:1314827)

张孝全 Joseph Chang (id:1014743)

曾志伟 Eric Tsang (id:1002862)

杨祐宁 Yo Yang (id:1051157)

张少怀 Shao-Huai Chang (id:1339540)

许杰辉 Chieh-Hui Hsu (id:1323486)

林美秀 Mei-hsiu Lin (id:1316086)

顾宝明 Pao-Ming Ku (id:1285575)

陈竹昇 Chu-sheng Chen (id:1358964)

柯宇纶 Lawrence Ko (id:1275416)

黄健玮 Chien-wei Huang (id:1274687)

陈彦佐 Yen-Tso Chen (id:1417500)

陈祎伦 Allen Chen (id:1369352)

叶如芬 Ju-feng Yeh (id:1335030)

王希文 Owen Wang (id:1331668)

姚宏易 Hung-i Yao (id:1314541)

汤湘竹 Shiang-Chu Tang (id:1298902)

富康 Kang Fu (id:1325306)

韩军生 Junsheng Han (id:1433302)

李昭桦 Charles Lee (id:1352759)

杨志龙 Gino Yang (id:1434709)

◎简 介

《健忘村》的故事发生在一片世外桃源般的村落里,传说此地风水有帝王之相,石员外(曾志伟 饰)觊觎村中龙脉,企图与土匪联合屠村。有一天,一声惨叫打破了裕旺村的宁静,村民朱大饼意外中毒身亡,大饼的妻子秋蓉(舒淇 饰)成为了最大嫌疑人,这时“天虹真人”田贵(王千源 饰)手持神秘宝器“忘忧”路过村子。据说“忘忧”可以洗去人的记忆,控制人格。从此裕旺村变成了健忘村。荒诞爆笑,阴谋不断,其乐融融的世外桃源背后隐藏着一场血雨腥风。

◎获奖情况 (共4项)

第54届台北金马影展 (2017)

金马奖 最佳女主角(提名)

└──舒淇 (id:1138320)

金马奖 最佳美术设计(提名)

└──黄美清 (id:1331964)

金马奖 最佳造型设计(提名)

└──吴里璐 (id:1289270)

第19届台北电影节 (2017)

台北电影奖 最佳剧情长片(提名)

  1. ##### MediaInfo ######

  2. General

  3. Complete name : 健忘村.The.Village.of.No.Return.2017.2160p.WEB-DL.H265.DV.DDP5.1.Atmos-OurTV.mp4

  4. Format : MPEG-4

  5. Format profile : Base Media / Version 2

  6. Codec ID : mp42 (mp42/iso6/isom/msdh/dby1)

  7. File size : 5.24 GiB

  8. Duration : 1 h 55 min

  9. Overall bit rate : 6 499 kb/s

  10. Encoded date : UTC 2022-04-17 01:09:37

  11. Tagged date : UTC 2022-04-17 01:09:37

  12. Video

  13. ID : 1

  14. Format : HEVC

  15. Format/Info : High Efficiency Video Coding

  16. Format profile : Main [email protected]@Main

  17. HDR format : Dolby Vision, Version 1.0, dvhe.05.06, BL+RPU

  18. Codec ID : dvhe

  19. Codec ID/Info : High Efficiency Video Coding with Dolby Vision

  20. Duration : 1 h 55 min

  21. Bit rate : 6 048 kb/s

  22. Width : 3 840 pixels

  23. Height : 2 160 pixels

  24. Display aspect ratio : 16:9

  25. Frame rate mode : Constant

  26. Frame rate : 24.000 FPS

  27. Color space : YUV

  28. Chroma subsampling : 4:2:0

  29. Bit depth : 10 bits

  30. Bits/(Pixel*Frame) : 0.030

  31. Stream size : 4.88 GiB (93%)

  32. Writing library : x265 2.3:[Linux][GCC 4.8.4][64 bit] 10bit

  33. Encoding settings : cpuid=533541173503 / frame-threads=8 / wpp / no-pmode / no-pme / no-psnr / no-ssim / log-level=2 / input-csp=1 / input-res=3840x2160 / interlace=0 / total-frames=0 / level-idc=50 / high-tier=1 / uhd-bd=0 / ref=4 / no-allow-non-conformance / repeat-headers / annexb / aud / hrd / info / hash=0 / no-temporal-layers / no-open-gop / min-keyint=48 / keyint=48 / bframes=4 / b-adapt=2 / b-pyramid / bframe-bias=0 / rc-lookahead=48 / lookahead-slices=4 / scenecut=0 / no-intra-refresh / ctu=64 / min-cu-size=8 / rect / no-amp / max-tu-size=32 / tu-inter-depth=1 / tu-intra-depth=1 / limit-tu=0 / rdoq-level=2 / dynamic-rd=0.00 / signhide / no-tskip / nr-intra=100 / nr-inter=400 / no-constrained-intra / strong-intra-smoothing / max-merge=3 / limit-refs=3 / limit-modes / me=3 / subme=3 / merange=57 / temporal-mvp / weightp / no-weightb / no-analyze-src-pics / deblock=0:0 / no-sao / no-sao-non-deblock / rd=4 / no-early-skip / no-rskip / no-fast-intra / no-tskip-fast / no-cu-lossless / no-b-intra / rdpenalty=0 / psy-rd=0.00 / psy-rdoq=10.00 / no-rd-refine / analysis-mode=0 / no-lossless / cbqpoffs=0 / crqpoffs=3 / rc=abr / bitrate=6000 / qcomp=0.60 / qpstep=1 / stats-write=0 / stats-read=2 / cplxblur=20.0 / qblur=0.5 / vbv-maxrate=12000 / vbv-bufsize=12000 / vbv-init=0.9 / ipratio=1.10 / pbratio=1.00 / aq-mode=0 / aq-strength=0.00 / no-cutree / zone-count=0 / no-strict-cbr / qg-size=32 / rc-grain / qpmax=69 / qpmin=0 / sar=1 / overscan=0 / videoformat=5 / range=1 / colorprim=2 / transfer=2 / colormatrix=2 / chromaloc=0 / display-window=0 / max-cll=0,0 / min-luma=0 / max-luma=1023 / log2-max-poc-lsb=8 / vui-timing-info / vui-hrd-info / slices=1 / opt-qp-pps / opt-ref-list-length-pps / no-multi-pass-opt-rps / scenecut-bias=0.05 / no-opt-cu-delta-qp / no-aq-motion / no-hdr

  34. Default : Yes

  35. Alternate group : 1

  36. Encoded date : UTC 2022-04-17 01:09:37

  37. Tagged date : UTC 2022-04-17 01:09:37

  38. Color range : Full

  39. Codec configuration box : hvcC+dvcC

  40. Audio

  41. ID : 2

  42. Format : E-AC-3 JOC

  43. Format/Info : Enhanced AC-3 with Joint Object Coding

  44. Commercial name : Dolby Digital Plus with Dolby Atmos

  45. Codec ID : ac-3

  46. Duration : 1 h 55 min

  47. Bit rate mode : Constant

  48. Bit rate : 448 kb/s

  49. Channel(s) : 6 channels

  50. Channel layout : L R C LFE Ls Rs

  51. Sampling rate : 48.0 kHz

  52. Frame rate : 31.250 FPS (1536 SPF)

  53. Compression mode : Lossy

  54. Stream size : 370 MiB (7%)

  55. Language : Chinese

  56. Service kind : Complete Main

  57. Default : Yes

  58. Alternate group : 2

  59. Encoded date : UTC 2022-04-17 01:09:37

  60. Tagged date : UTC 2022-04-17 01:09:37

  61. Complexity index : Not present / 12

  62. Number of dynamic objects : 11

  63. Bed channel count : 1 channel

  64. Bed channel configuration : LFE


复制代码



文件下载


除非特别注明,本文『健忘村[杜比视界版本][国语配音/中文字幕].The.Village.of.No.Return.2017.2160p.WEB-DL.H265.DV.DDP5.1.Atmos-HDBWEB 5.24GB』来源于互联网机器人自动抓取,非本站原创。 浮游电影网不对本文拥有版权,如有侵犯,请联系邮箱:fuyouu#yandex.com[#换成@]投诉。我们会在15个工作日内删除。 但烦请转载时请标明出处:“本文转载于『浮游电影网』,原文地址:https://www.fuyouu.com/21420.html

评论吧骚年!

发表你的见解   

昵称*

E-mail*(建议输入,以便收到博主回复的提示邮件)

验证码*

您可以使用eMule或eMule Mod(Windows)、aMule(Win、Linux、Mac)等软件下载eD2k链接。。
eMule收藏集(.emulecollection)文件是您选中的所有链接的列表文件。eMule可以直接下载它们。
按住SHIFT键选择可以选中多个选择框。
可用文件名和大小选择器来选择文件。
文件名选择器帮您根据文件名称或后缀来选择文件。不分大小写。
符号使用:
和:空格( )、+
不包含:-
或:|
转义:一对英文引号("");
匹配开头:^
匹配结尾:$
例如:
选中所有名称中包含有“eMule”或“0.49c”字眼,但不包含有“exe”字眼的:emule|0.49c -exe
选中所有名称的开头是“eMule”,结尾是“0.49c”的:^emule 0.49c$
选中所有名称中带有“eMule 0.49c”的(必须是“eMule 0.49c”,中间没有别的字符,不能是“eMule fake 0.49c”),需要转义:"emule 0.49c"
大小选择器帮您根据文件大小选择文件。