当前位置: 首页 >> 欧美电影 >> 拜见布莱克一家2:邻家有鬼[简体字幕].The.House.Next.Door.2021.1080p.WEB-DL.AAC2.0.H.265-CTRLWEB 2.85GB >> 正文

拜见布莱克一家2:邻家有鬼[简体字幕].The.House.Next.Door.2021.1080p.WEB-DL.AAC2.0.H.265-CTRLWEB 2.85GB

2022年04月18日 14:50:36     电影发布:来源于网络     电影分类:欧美电影     评论(0)    

拜见布莱克一家2:邻家有鬼[简体字幕].The.House.Next.Door.2021.1080p.WEB DL.AAC2.0.H.265 CTRLWEB 2.85GB  欧美电影  第1张

◎译 名 拜见布莱克一家2:邻家有鬼 / Meet The Blacks 2

◎片 名 The House Next Door

◎年 代 2021

◎产 地 美国

◎类 别 喜剧 / 动作 / 恐怖

◎语 言 英语

◎上映日期 2021-06-11(美国)

◎IMDb链接 https://www.imdb.com/title/tt7524444/

◎豆瓣评分 4.3/10 (117人评价)

◎豆瓣链接 https://movie.douban.com/subject/30257377/

◎片 长 97分钟

◎导 演 德翁·泰勒 Deon Taylor (id:1356440)

◎演 员 祖蕾·亨奥 Zulay Henao (id:1018104)

布莱莎·韦伯 Bresha Webb (id:1356443)

迈克·艾普斯 Mike Epps (id:1040592)

安德鲁·巴切勒 Andrew Bachelor (id:1354460)

卡特·威廉姆斯 Katt Williams (id:1049781)

泰里恩·特纳 Tyrin Turner (id:1157507)

小蒂姆·约翰逊 Tim Johnson Jr. (id:1390578)

迈克尔·布莱克森 Michael Blackson (id:1061780)

小杜瓦尔 Lil Duval (id:1356444)

沙希德·伍兹 Shaheed K. Woods (id:1390476)

◎简 介

When best selling author Carl Black moves his family back to his childhood home, he must team up with oddball neighbors to do battle with a pimp, who may or may not be an actual vampire.

  1. ##### MediaInfo ######

  2. General

  3. Unique ID : 230747363183471430772634592133545071613 (0xAD98535CC5BBD8193CB0FCC3728613FD)

  4. Complete name : [email protected]B.mkv

  5. Format : Matroska

  6. Format version : Version 4

  7. File size : 2.85 GiB

  8. Duration : 1 h 36 min

  9. Overall bit rate : 4 203 kb/s

  10. Encoded date : UTC 2022-04-17 08:14:20

  11. Writing application : mkvmerge v65.0.0 ('Too Much') 64-bit

  12. Writing library : libebml v1.4.2 + libmatroska v1.6.4

  13. Video

  14. ID : 1

  15. Format : HEVC

  16. Format/Info : High Efficiency Video Coding

  17. Format profile : [email protected]@Main

  18. Codec ID : V_MPEGH/ISO/HEVC

  19. Duration : 1 h 36 min

  20. Bit rate : 4 011 kb/s

  21. Width : 1 920 pixels

  22. Height : 800 pixels

  23. Display aspect ratio : 2.40:1

  24. Frame rate mode : Constant

  25. Frame rate : 24.000 FPS

  26. Color space : YUV

  27. Chroma subsampling : 4:2:0

  28. Bit depth : 8 bits

  29. Bits/(Pixel*Frame) : 0.109

  30. Stream size : 2.72 GiB (95%)

  31. Default : Yes

  32. Forced : No

  33. Audio

  34. ID : 2

  35. Format : AAC LC

  36. Format/Info : Advanced Audio Codec Low Complexity

  37. Codec ID : A_AAC-2

  38. Duration : 1 h 36 min

  39. Bit rate : 192 kb/s

  40. Channel(s) : 2 channels

  41. Channel layout : L R

  42. Sampling rate : 44.1 kHz

  43. Frame rate : 43.066 FPS (1024 SPF)

  44. Compression mode : Lossy

  45. Stream size : 132 MiB (5%)

  46. Language : English

  47. Default : Yes

  48. Forced : No

  49. Text #1

  50. ID : 3

  51. Format : UTF-8

  52. Codec ID : S_TEXT/UTF8

  53. Codec ID/Info : UTF-8 Plain Text

  54. Duration : 1 h 34 min

  55. Bit rate : 73 b/s

  56. Count of elements : 1493

  57. Stream size : 50.5 KiB (0%)

  58. Title : Chinese Simplified

  59. Language : Chinese

  60. Default : Yes

  61. Forced : No

  62. Text #2

  63. ID : 4

  64. Format : UTF-8

  65. Codec ID : S_TEXT/UTF8

  66. Codec ID/Info : UTF-8 Plain Text

  67. Duration : 1 h 34 min

  68. Bit rate : 73 b/s

  69. Count of elements : 1493

  70. Stream size : 50.5 KiB (0%)

  71. Title : Chinese Traditional

  72. Language : Chinese

  73. Default : Yes

  74. Forced : No


复制代码



文件下载


除非特别注明,本文『拜见布莱克一家2:邻家有鬼[简体字幕].The.House.Next.Door.2021.1080p.WEB-DL.AAC2.0.H.265-CTRLWEB 2.85GB』来源于互联网机器人自动抓取,非本站原创。 浮游电影网不对本文拥有版权,如有侵犯,请联系邮箱:fuyouu#yandex.com[#换成@]投诉。我们会在15个工作日内删除。 但烦请转载时请标明出处:“本文转载于『浮游电影网』,原文地址:https://www.fuyouu.com/21419.html

评论吧骚年!

发表你的见解   

昵称*

E-mail*(建议输入,以便收到博主回复的提示邮件)

验证码*

您可以使用eMule或eMule Mod(Windows)、aMule(Win、Linux、Mac)等软件下载eD2k链接。。
eMule收藏集(.emulecollection)文件是您选中的所有链接的列表文件。eMule可以直接下载它们。
按住SHIFT键选择可以选中多个选择框。
可用文件名和大小选择器来选择文件。
文件名选择器帮您根据文件名称或后缀来选择文件。不分大小写。
符号使用:
和:空格( )、+
不包含:-
或:|
转义:一对英文引号("");
匹配开头:^
匹配结尾:$
例如:
选中所有名称中包含有“eMule”或“0.49c”字眼,但不包含有“exe”字眼的:emule|0.49c -exe
选中所有名称的开头是“eMule”,结尾是“0.49c”的:^emule 0.49c$
选中所有名称中带有“eMule 0.49c”的(必须是“eMule 0.49c”,中间没有别的字符,不能是“eMule fake 0.49c”),需要转义:"emule 0.49c"
大小选择器帮您根据文件大小选择文件。