当前位置: 首页 >> 欧美电影 >> 好家伙[中文字幕].Goodfellas.1990.REMASTERED.1080p.BluRay.REMUX.AVC.DTS-HD.MA.5.1-FGT 35.02GB >> 正文

好家伙[中文字幕].Goodfellas.1990.REMASTERED.1080p.BluRay.REMUX.AVC.DTS-HD.MA.5.1-FGT 35.02GB

2022年04月18日 14:44:21     电影发布:来源于网络     电影分类:欧美电影     评论(0)    

好家伙[中文字幕].Goodfellas.1990.REMASTERED.1080p.BluRay.REMUX.AVC.DTS HD.MA.5.1 FGT 35.02GB  欧美电影  第1张

◎译 名 好家伙 / 盗亦有道(港) / 四海好家伙(台)

◎片 名 GoodFellas

◎年 代 1990

◎产 地 美国

◎类 别 剧情 / 传记 / 犯罪

◎语 言 英语 / 意大利语

◎上映日期 1990-09-09(威尼斯电影节) / 1990-09-21(美国)

◎IMDb链接 https://www.imdb.com/title/tt0099685/

◎豆瓣评分 8.5/10 (102195人评价)

◎豆瓣链接 https://movie.douban.com/subject/1292268/

◎片 长 146分钟

◎导 演 马丁·斯科塞斯 Martin Scorsese (id:1054425)

◎编 剧 马丁·斯科塞斯 Martin Scorsese (id:1054425)

尼古拉斯·派勒吉 Nicholas Pileggi (id:1032455)

◎演 员 罗伯特·德尼罗 Robert De Niro (id:1054445)

雷·利奥塔 Ray Liotta (id:1036326)

乔·佩西 Joe Pesci (id:1004598)

洛南·布雷科 Lorraine Bracco (id:1027197)

保罗·索维诺 Paul Sorvino (id:1000196)

弗兰克·西维罗 Frank Sivero (id:1155404)

托尼·戴劳 Tony Darrow (id:1086188)

迈克·斯塔尔 Mike Starr (id:1025280)

弗兰克·文森特 Frank Vincent (id:1150295)

查克·洛 Chuck Low (id:1121777)

弗兰克·迪莱奥 Frank DiLeo (id:1028147)

亨利·扬曼 Henny Youngman (id:1165163)

吉娜·马斯特罗吉科莫 Gina Mastrogiacomo (id:1122173)

凯瑟琳·斯科塞斯 Catherine Scorsese (id:1000607)

查尔斯·斯科西斯 Charles Scorsese (id:1045334)

苏珊妮·谢泼德 Suzanne Shepherd (id:1344219)

黛比·玛扎 Debi Mazar (id:1025222)

塞缪尔·杰克逊 Samuel L. Jackson (id:1054408)

迈克尔·因佩里奥利 Michael Imperioli (id:1002729)

文森特·加洛 Vincent Gallo (id:1000098)

博斯塔尔 Beau Starr (id:1381981)

弗兰克·德拉邦特 Frank Darabont (id:1047973)

艾伦·休斯 Allen Hughes (id:1000296)

理查德·林克莱特 Richard Linklater (id:1025246)

乔·卡纳汉 Joe Carnahan (id:1044728)

艾尔伯特·休斯 Albert Hughes (id:1000201)

安东尼·福奎阿 Antoine Fuqua (id:1013907)

维克托·科利采奇奥 Victor Colicchio (id:1281062)

托宾·贝尔 Tobin Bell (id:1025219)

Bruce S. Pustin Bruce S. Pustin (id:1294997)

杰弗里·施瓦茨 Jeffrey Schwarz (id:1049531)

Barbara De Fina Barbara De Fina (id:1281998)

迈克尔·包豪斯 Michael Ballhaus (id:1025403)

埃伦·路易斯 Ellen Lewis (id:1289949)

莱斯利·布鲁姆 Leslie Bloom (id:1278821)

Richard Bruno Richard Bruno (id:1279505)

卡尔·富勒顿 Carl Fullerton (id:1284349)

Allen Weisinger Allen Weisinger (id:1300632)

艾兰·丹格里奥 Alan D'Angerio (id:1281682)

William A. Farley William A. Farley (id:1283448)

约瑟夫·莱迪 Joseph P. Reidy (id:1295409)

理查德·格林伯格 Richard Greenberg (id:1285383)

◎简 介

本片根据真实故事改编,讲述了纽约黑手党血腥的江湖恩怨,把所谓的“江湖道义”还原为人性的丑陋与贪婪。

亨利?希尔(雷?李欧塔 饰)从小不学无术,跟着老大保利,靠收取保护费、走私、抢劫,他娶了美丽的妻子凯伦,有可爱的女儿,迷人的情妇,名车豪宅,生活优渥。

吉米?康维(罗伯特?德尼罗 饰)和汤米(乔?佩西 饰)是亨利的好朋友,三人一起经历和很多事情:杀死羞辱汤米的意大利黑手党头领比利?贝兹;策划德航劫案,并干掉同伙,私吞赃款;甚至背着老大保利贩毒。

当然,他们的生活,除了享受金钱带来的权势之外,更多的,是朝不保夕的动荡:汤米因为比利?贝兹的死,被人枪杀;亨利自己因为贩毒被警方逮捕,其他人也受到牵连。

凯伦想尽办法将亨利保释出来,此时他们已经一无所有,被人孤立,危机四伏。他们要想尽办法活下去,无论以怎样的方式,付出怎样的代价……

◎获奖情况 (共8项)

第63届奥斯卡金像奖 (1991)

最佳影片(提名)

└──艾文·温克勒 (id:1018291)

最佳导演(提名)

└──马丁·斯科塞斯 (id:1054425)

最佳男配角

└──乔·佩西 (id:1004598)

最佳女配角(提名)

└──洛南·布雷科 (id:1027197)

最佳改编剧本(提名)

最佳剪辑(提名)

└──塞尔玛·斯昆梅克 (id:1014210)

第47届威尼斯电影节 (1990)

主竞赛单元 金狮奖 (提名)

└──马丁·斯科塞斯 (id:1054425)

银狮奖 最佳导演

└──马丁·斯科塞斯 (id:1054425)

  1. Video

  2. ID : 1

  3. ID in the original source medium : 4113 (0x1011)

  4. Format : AVC

  5. Format/Info : Advanced Video Codec

  6. Format profile : [email protected]

  7. Format settings : CABAC / 2 Ref Frames

  8. Format settings, CABAC : Yes

  9. Format settings, Reference frames : 2 frames

  10. Codec ID : V_MPEG4/ISO/AVC

  11. Duration : 2 h 25 min

  12. Bit rate mode : Variable

  13. Bit rate : 27.3 Mb/s

  14. Width : 1 920 pixels

  15. Height : 1 080 pixels

  16. Display aspect ratio : 16:9

  17. Frame rate mode : Constant

  18. Frame rate : 23.976 (24000/1001/53354) FPS

  19. Color space : YUV

  20. Chroma subsampling : 4:2:0

  21. Bit depth : 8 bits

  22. Scan type : Progressive

  23. Bits/(Pixel*Frame) : 0.550

  24. Stream size : 27.7 GiB (79%)

  25. Language : English

  26. Default : No

  27. Forced : No

  28. Original source medium : Blu-ray


  29. Audio #1

  30. ID : 2

  31. ID in the original source medium : 4352 (0x1100)

  32. Format : DTS XLL

  33. Format/Info : Digital Theater Systems

  34. Commercial name : DTS-HD Master Audio

  35. Codec ID : A_DTS

  36. Duration : 2 h 25 min

  37. Bit rate mode : Variable

  38. Bit rate : 3 999 kb/s

  39. Channel(s) : 6 channels

  40. Channel layout : C L R Ls Rs LFE

  41. Sampling rate : 48.0 kHz

  42. Frame rate : 93.750 FPS (512 SPF)

  43. Bit depth : 24 bits

  44. Compression mode : Lossless

  45. Stream size : 4.06 GiB (12%)

  46. Title : DTS-HD MA 5.1

  47. Language : English

  48. Default : Yes

  49. Forced : No

  50. Original source medium : Blu-ray


  51. Audio #2

  52. ID : 3

  53. ID in the original source medium : 4353 (0x1101)

  54. Format : AC-3

  55. Format/Info : Audio Coding 3

  56. Commercial name : Dolby Digital

  57. Format settings : Dolby Surround

  58. Codec ID : A_AC3

  59. Duration : 2 h 25 min

  60. Bit rate mode : Constant

  61. Bit rate : 192 kb/s

  62. Channel(s) : 2 channels

  63. Channel layout : L R

  64. Sampling rate : 48.0 kHz

  65. Frame rate : 31.250 FPS (1536 SPF)

  66. Compression mode : Lossy

  67. Stream size : 200 MiB (0%)

  68. Title : DD 2.0

  69. Language : French

  70. Service kind : Complete Main

  71. Default : No

  72. Forced : No

  73. Original source medium : Blu-ray


  74. Audio #3

  75. ID : 4

  76. ID in the original source medium : 4354 (0x1102)

  77. Format : AC-3

  78. Format/Info : Audio Coding 3

  79. Commercial name : Dolby Digital

  80. Format settings : Dolby Surround

  81. Codec ID : A_AC3

  82. Duration : 2 h 25 min

  83. Bit rate mode : Constant

  84. Bit rate : 192 kb/s

  85. Channel(s) : 2 channels

  86. Channel layout : L R

  87. Sampling rate : 48.0 kHz

  88. Frame rate : 31.250 FPS (1536 SPF)

  89. Compression mode : Lossy

  90. Stream size : 200 MiB (0%)

  91. Title : DD 2.0

  92. Language : German

  93. Service kind : Complete Main

  94. Default : No

  95. Forced : No

  96. Original source medium : Blu-ray


  97. Audio #4

  98. ID : 5

  99. ID in the original source medium : 4355 (0x1103)

  100. Format : AC-3

  101. Format/Info : Audio Coding 3

  102. Commercial name : Dolby Digital

  103. Format settings : Dolby Surround

  104. Codec ID : A_AC3

  105. Duration : 2 h 25 min

  106. Bit rate mode : Constant

  107. Bit rate : 192 kb/s

  108. Channel(s) : 2 channels

  109. Channel layout : L R

  110. Sampling rate : 48.0 kHz

  111. Frame rate : 31.250 FPS (1536 SPF)

  112. Compression mode : Lossy

  113. Stream size : 200 MiB (0%)

  114. Title : DD 2.0

  115. Language : Italian

  116. Service kind : Complete Main

  117. Default : No

  118. Forced : No

  119. Original source medium : Blu-ray


  120. Audio #5

  121. ID : 6

  122. ID in the original source medium : 4356 (0x1104)

  123. Format : AC-3

  124. Format/Info : Audio Coding 3

  125. Commercial name : Dolby Digital

  126. Format settings : Dolby Surround

  127. Codec ID : A_AC3

  128. Duration : 2 h 25 min

  129. Bit rate mode : Constant

  130. Bit rate : 192 kb/s

  131. Channel(s) : 2 channels

  132. Channel layout : L R

  133. Sampling rate : 48.0 kHz

  134. Frame rate : 31.250 FPS (1536 SPF)

  135. Compression mode : Lossy

  136. Stream size : 200 MiB (0%)

  137. Title : DD 2.0

  138. Language : Spanish

  139. Service kind : Complete Main

  140. Default : No

  141. Forced : No

  142. Original source medium : Blu-ray


  143. Audio #6

  144. ID : 7

  145. ID in the original source medium : 4357 (0x1105)

  146. Format : AC-3

  147. Format/Info : Audio Coding 3

  148. Commercial name : Dolby Digital

  149. Codec ID : A_AC3

  150. Duration : 2 h 25 min

  151. Bit rate mode : Constant

  152. Bit rate : 192 kb/s

  153. Channel(s) : 1 channel

  154. Channel layout : C

  155. Sampling rate : 48.0 kHz

  156. Frame rate : 31.250 FPS (1536 SPF)

  157. Compression mode : Lossy

  158. Stream size : 200 MiB (0%)

  159. Title : DD 2.0

  160. Language : Portuguese

  161. Service kind : Complete Main

  162. Default : No

  163. Forced : No

  164. Original source medium : Blu-ray


  165. Audio #7

  166. ID : 8

  167. ID in the original source medium : 4358 (0x1106)

  168. Format : AC-3

  169. Format/Info : Audio Coding 3

  170. Commercial name : Dolby Digital

  171. Format settings : Dolby Surround

  172. Codec ID : A_AC3

  173. Duration : 2 h 25 min

  174. Bit rate mode : Constant

  175. Bit rate : 192 kb/s

  176. Channel(s) : 2 channels

  177. Channel layout : L R

  178. Sampling rate : 48.0 kHz

  179. Frame rate : 31.250 FPS (1536 SPF)

  180. Compression mode : Lossy

  181. Stream size : 200 MiB (0%)

  182. Title : DD 2.0

  183. Language : Czech

  184. Service kind : Complete Main

  185. Default : No

  186. Forced : No

  187. Original source medium : Blu-ray


  188. Audio #8

  189. ID : 9

  190. ID in the original source medium : 4359 (0x1107)

  191. Format : AC-3

  192. Format/Info : Audio Coding 3

  193. Commercial name : Dolby Digital

  194. Format settings : Dolby Surround

  195. Codec ID : A_AC3

  196. Duration : 2 h 25 min

  197. Bit rate mode : Constant

  198. Bit rate : 192 kb/s

  199. Channel(s) : 2 channels

  200. Channel layout : L R

  201. Sampling rate : 48.0 kHz

  202. Frame rate : 31.250 FPS (1536 SPF)

  203. Compression mode : Lossy

  204. Stream size : 200 MiB (0%)

  205. Title : DD 2.0

  206. Language : Hungarian

  207. Service kind : Complete Main

  208. Default : No

  209. Forced : No

  210. Original source medium : Blu-ray


  211. Audio #9

  212. ID : 10

  213. ID in the original source medium : 4360 (0x1108)

  214. Format : AC-3

  215. Format/Info : Audio Coding 3

  216. Commercial name : Dolby Digital

  217. Format settings : Dolby Surround

  218. Codec ID : A_AC3

  219. Duration : 2 h 25 min

  220. Bit rate mode : Constant

  221. Bit rate : 192 kb/s

  222. Channel(s) : 2 channels

  223. Channel layout : L R

  224. Sampling rate : 48.0 kHz

  225. Frame rate : 31.250 FPS (1536 SPF)

  226. Compression mode : Lossy

  227. Stream size : 200 MiB (0%)

  228. Title : DD 2.0

  229. Language : Polish

  230. Service kind : Complete Main

  231. Default : No

  232. Forced : No

  233. Original source medium : Blu-ray


  234. Audio #10

  235. ID : 11

  236. ID in the original source medium : 4361 (0x1109)

  237. Format : AC-3

  238. Format/Info : Audio Coding 3

  239. Commercial name : Dolby Digital

  240. Codec ID : A_AC3

  241. Duration : 2 h 25 min

  242. Bit rate mode : Constant

  243. Bit rate : 448 kb/s

  244. Channel(s) : 6 channels

  245. Channel layout : L R C LFE Ls Rs

  246. Sampling rate : 48.0 kHz

  247. Frame rate : 31.250 FPS (1536 SPF)

  248. Compression mode : Lossy

  249. Stream size : 466 MiB (1%)

  250. Title : DD 5.1

  251. Language : Russian

  252. Service kind : Complete Main

  253. Default : No

  254. Forced : No

  255. Original source medium : Blu-ray


  256. Audio #11

  257. ID : 12

  258. ID in the original source medium : 4362 (0x110A)

  259. Format : AC-3

  260. Format/Info : Audio Coding 3

  261. Commercial name : Dolby Digital

  262. Format settings : Dolby Surround

  263. Codec ID : A_AC3

  264. Duration : 2 h 25 min

  265. Bit rate mode : Constant

  266. Bit rate : 192 kb/s

  267. Channel(s) : 2 channels

  268. Channel layout : L R

  269. Sampling rate : 48.0 kHz

  270. Frame rate : 31.250 FPS (1536 SPF)

  271. Compression mode : Lossy

  272. Stream size : 200 MiB (0%)

  273. Title : DD 2.0

  274. Language : Thai

  275. Service kind : Complete Main

  276. Default : No

  277. Forced : No

  278. Original source medium : Blu-ray


  279. Audio #12

  280. ID : 13

  281. ID in the original source medium : 4363 (0x110B)

  282. Format : AC-3

  283. Format/Info : Audio Coding 3

  284. Commercial name : Dolby Digital

  285. Codec ID : A_AC3

  286. Duration : 2 h 25 min

  287. Bit rate mode : Constant

  288. Bit rate : 192 kb/s

  289. Channel(s) : 1 channel

  290. Channel layout : C

  291. Sampling rate : 48.0 kHz

  292. Frame rate : 31.250 FPS (1536 SPF)

  293. Compression mode : Lossy

  294. Stream size : 200 MiB (0%)

  295. Title : DD 2.0

  296. Language : Turkish

  297. Service kind : Complete Main

  298. Default : No

  299. Forced : No

  300. Original source medium : Blu-ray


  301. Audio #13

  302. ID : 14

  303. ID in the original source medium : 4365 (0x110D)

  304. Format : AC-3

  305. Format/Info : Audio Coding 3

  306. Commercial name : Dolby Digital

  307. Format settings : Dolby Surround

  308. Codec ID : A_AC3

  309. Duration : 2 h 25 min

  310. Bit rate mode : Constant

  311. Bit rate : 192 kb/s

  312. Channel(s) : 2 channels

  313. Channel layout : L R

  314. Sampling rate : 48.0 kHz

  315. Frame rate : 31.250 FPS (1536 SPF)

  316. Compression mode : Lossy

  317. Stream size : 200 MiB (0%)

  318. Title : DD 2.0

  319. Language : English

  320. Service kind : Complete Main

  321. Default : No

  322. Forced : No

  323. Original source medium : Blu-ray


  324. Audio #14

  325. ID : 15

  326. ID in the original source medium : 4366 (0x110E)

  327. Format : AC-3

  328. Format/Info : Audio Coding 3

  329. Commercial name : Dolby Digital

  330. Format settings : Dolby Surround

  331. Codec ID : A_AC3

  332. Duration : 2 h 25 min

  333. Bit rate mode : Constant

  334. Bit rate : 192 kb/s

  335. Channel(s) : 2 channels

  336. Channel layout : L R

  337. Sampling rate : 48.0 kHz

  338. Frame rate : 31.250 FPS (1536 SPF)

  339. Compression mode : Lossy

  340. Stream size : 200 MiB (0%)

  341. Title : DD 2.0

  342. Language : English

  343. Service kind : Complete Main

  344. Default : No

  345. Forced : No

  346. Original source medium : Blu-ray


  347. Text #1

  348. ID : 16

  349. Format : UTF-8

  350. Codec ID : S_TEXT/UTF8

  351. Codec ID/Info : UTF-8 Plain Text

  352. Duration : 2 h 18 min

  353. Bit rate : 87 b/s

  354. Count of elements : 2053

  355. Stream size : 88.8 KiB (0%)

  356. Language : English

  357. Default : Yes

  358. Forced : No


  359. Text #2

  360. ID : 17

  361. Format : UTF-8

  362. Codec ID : S_TEXT/UTF8

  363. Codec ID/Info : UTF-8 Plain Text

  364. Duration : 2 h 24 min

  365. Bit rate : 85 b/s

  366. Count of elements : 2172

  367. Stream size : 90.8 KiB (0%)

  368. Title : SDH

  369. Language : English

  370. Default : No

  371. Forced : No


  372. Text #3

  373. ID : 18

  374. ID in the original source medium : 4609 (0x1201)

  375. Format : PGS

  376. Muxing mode : zlib

  377. Codec ID : S_HDMV/PGS

  378. Codec ID/Info : Picture based subtitle format used on BDs/HD-DVDs

  379. Duration : 2 h 24 min

  380. Bit rate : 47.3 kb/s

  381. Count of elements : 4388

  382. Stream size : 48.8 MiB (0%)

  383. Language : English

  384. Default : No

  385. Forced : No

  386. Original source medium : Blu-ray


  387. Text #4

  388. ID : 19

  389. ID in the original source medium : 4610 (0x1202)

  390. Format : PGS

  391. Muxing mode : zlib

  392. Codec ID : S_HDMV/PGS

  393. Codec ID/Info : Picture based subtitle format used on BDs/HD-DVDs

  394. Duration : 2 h 24 min

  395. Bit rate : 36.9 kb/s

  396. Count of elements : 3970

  397. Stream size : 38.2 MiB (0%)

  398. Language : French

  399. Default : No

  400. Forced : No

  401. Original source medium : Blu-ray


  402. Text #5

  403. ID : 20

  404. ID in the original source medium : 4611 (0x1203)

  405. Format : PGS

  406. Muxing mode : zlib

  407. Codec ID : S_HDMV/PGS

  408. Codec ID/Info : Picture based subtitle format used on BDs/HD-DVDs

  409. Duration : 2 h 24 min

  410. Bit rate : 41.6 kb/s

  411. Count of elements : 4552

  412. Stream size : 43.1 MiB (0%)

  413. Language : German

  414. Default : No

  415. Forced : No

  416. Original source medium : Blu-ray


  417. Text #6

  418. ID : 21

  419. ID in the original source medium : 4612 (0x1204)

  420. Format : PGS

  421. Muxing mode : zlib

  422. Codec ID : S_HDMV/PGS

  423. Codec ID/Info : Picture based subtitle format used on BDs/HD-DVDs

  424. Duration : 2 h 24 min

  425. Bit rate : 42.3 kb/s

  426. Count of elements : 4422

  427. Stream size : 43.7 MiB (0%)

  428. Language : Italian

  429. Default : No

  430. Forced : No

  431. Original source medium : Blu-ray


  432. Text #7

  433. ID : 22

  434. ID in the original source medium : 4613 (0x1205)

  435. Format : PGS

  436. Muxing mode : zlib

  437. Codec ID : S_HDMV/PGS

  438. Codec ID/Info : Picture based subtitle format used on BDs/HD-DVDs

  439. Duration : 2 h 24 min

  440. Bit rate : 38.6 kb/s

  441. Count of elements : 4034

  442. Stream size : 40.0 MiB (0%)

  443. Language : Spanish

  444. Default : No

  445. Forced : No

  446. Original source medium : Blu-ray


  447. Text #8

  448. ID : 23

  449. ID in the original source medium : 4614 (0x1206)

  450. Format : PGS

  451. Muxing mode : zlib

  452. Codec ID : S_HDMV/PGS

  453. Codec ID/Info : Picture based subtitle format used on BDs/HD-DVDs

  454. Duration : 2 h 24 min

  455. Bit rate : 35.8 kb/s

  456. Count of elements : 3868

  457. Stream size : 37.0 MiB (0%)

  458. Language : Dutch

  459. Default : No

  460. Forced : No

  461. Original source medium : Blu-ray


  462. Text #9

  463. ID : 24

  464. ID in the original source medium : 4615 (0x1207)

  465. Format : PGS

  466. Muxing mode : zlib

  467. Codec ID : S_HDMV/PGS

  468. Codec ID/Info : Picture based subtitle format used on BDs/HD-DVDs

  469. Duration : 2 h 24 min

  470. Bit rate : 39.2 kb/s

  471. Count of elements : 4222

  472. Stream size : 40.7 MiB (0%)

  473. Language : Chinese

  474. Default : No

  475. Forced : No

  476. Original source medium : Blu-ray


  477. Text #10

  478. ID : 25

  479. ID in the original source medium : 4616 (0x1208)

  480. Format : PGS

  481. Muxing mode : zlib

  482. Codec ID : S_HDMV/PGS

  483. Codec ID/Info : Picture based subtitle format used on BDs/HD-DVDs

  484. Duration : 2 h 24 min

  485. Bit rate : 37.1 kb/s

  486. Count of elements : 3968

  487. Stream size : 38.3 MiB (0%)

  488. Language : Chinese

  489. Default : No

  490. Forced : No

  491. Original source medium : Blu-ray


  492. Text #11

  493. ID : 26

  494. ID in the original source medium : 4617 (0x1209)

  495. Format : PGS

  496. Muxing mode : zlib

  497. Codec ID : S_HDMV/PGS

  498. Codec ID/Info : Picture based subtitle format used on BDs/HD-DVDs

  499. Duration : 2 h 24 min

  500. Bit rate : 37.2 kb/s

  501. Count of elements : 3960

  502. Stream size : 38.5 MiB (0%)

  503. Language : Chinese

  504. Default : No

  505. Forced : No

  506. Original source medium : Blu-ray


  507. Text #12

  508. ID : 27

  509. ID in the original source medium : 4618 (0x120A)

  510. Format : PGS

  511. Muxing mode : zlib

  512. Codec ID : S_HDMV/PGS

  513. Codec ID/Info : Picture based subtitle format used on BDs/HD-DVDs

  514. Duration : 2 h 24 min

  515. Bit rate : 31.5 kb/s

  516. Count of elements : 4198

  517. Stream size : 32.5 MiB (0%)

  518. Language : Korean

  519. Default : No

  520. Forced : No

  521. Original source medium : Blu-ray


  522. Text #13

  523. ID : 28

  524. ID in the original source medium : 4619 (0x120B)

  525. Format : PGS

  526. Muxing mode : zlib

  527. Codec ID : S_HDMV/PGS

  528. Codec ID/Info : Picture based subtitle format used on BDs/HD-DVDs

  529. Duration : 2 h 24 min

  530. Bit rate : 36.3 kb/s

  531. Count of elements : 4122

  532. Stream size : 37.6 MiB (0%)

  533. Language : Spanish

  534. Default : No

  535. Forced : No

  536. Original source medium : Blu-ray


  537. Text #14

  538. ID : 29

  539. ID in the original source medium : 4620 (0x120C)

  540. Format : PGS

  541. Muxing mode : zlib

  542. Codec ID : S_HDMV/PGS

  543. Codec ID/Info : Picture based subtitle format used on BDs/HD-DVDs

  544. Duration : 2 h 24 min

  545. Bit rate : 39.3 kb/s

  546. Count of elements : 3862

  547. Stream size : 40.6 MiB (0%)

  548. Language : Portuguese

  549. Default : No

  550. Forced : No

  551. Original source medium : Blu-ray


  552. Text #15

  553. ID : 30

  554. ID in the original source medium : 4621 (0x120D)

  555. Format : PGS

  556. Muxing mode : zlib

  557. Codec ID : S_HDMV/PGS

  558. Codec ID/Info : Picture based subtitle format used on BDs/HD-DVDs

  559. Duration : 2 h 24 min

  560. Bit rate : 34.3 kb/s

  561. Count of elements : 3962

  562. Stream size : 35.4 MiB (0%)

  563. Language : Czech

  564. Default : No

  565. Forced : No

  566. Original source medium : Blu-ray


  567. Text #16

  568. ID : 31

  569. ID in the original source medium : 4622 (0x120E)

  570. Format : PGS

  571. Muxing mode : zlib

  572. Codec ID : S_HDMV/PGS

  573. Codec ID/Info : Picture based subtitle format used on BDs/HD-DVDs

  574. Duration : 2 h 24 min

  575. Bit rate : 34.9 kb/s

  576. Count of elements : 3970

  577. Stream size : 36.1 MiB (0%)

  578. Language : Greek

  579. Default : No

  580. Forced : No

  581. Original source medium : Blu-ray


  582. Text #17

  583. ID : 32

  584. ID in the original source medium : 4623 (0x120F)

  585. Format : PGS

  586. Muxing mode : zlib

  587. Codec ID : S_HDMV/PGS

  588. Codec ID/Info : Picture based subtitle format used on BDs/HD-DVDs

  589. Duration : 2 h 24 min

  590. Bit rate : 27.6 kb/s

  591. Count of elements : 3976

  592. Stream size : 28.6 MiB (0%)

  593. Language : Hebrew

  594. Default : No

  595. Forced : No

  596. Original source medium : Blu-ray


  597. Text #18

  598. ID : 33

  599. ID in the original source medium : 4624 (0x1210)

  600. Format : PGS

  601. Muxing mode : zlib

  602. Codec ID : S_HDMV/PGS

  603. Codec ID/Info : Picture based subtitle format used on BDs/HD-DVDs

  604. Duration : 2 h 24 min

  605. Bit rate : 42.3 kb/s

  606. Count of elements : 4142

  607. Stream size : 43.8 MiB (0%)

  608. Language : Hungarian

  609. Default : No

  610. Forced : No

  611. Original source medium : Blu-ray


  612. Text #19

  613. ID : 34

  614. ID in the original source medium : 4625 (0x1211)

  615. Format : PGS

  616. Muxing mode : zlib

  617. Codec ID : S_HDMV/PGS

  618. Codec ID/Info : Picture based subtitle format used on BDs/HD-DVDs

  619. Duration : 2 h 24 min

  620. Bit rate : 36.6 kb/s

  621. Count of elements : 4130

  622. Stream size : 37.8 MiB (0%)

  623. Language : Polish

  624. Default : No

  625. Forced : No

  626. Original source medium : Blu-ray


  627. Text #20

  628. ID : 35

  629. ID in the original source medium : 4626 (0x1212)

  630. Format : PGS

  631. Muxing mode : zlib

  632. Codec ID : S_HDMV/PGS

  633. Codec ID/Info : Picture based subtitle format used on BDs/HD-DVDs

  634. Duration : 2 h 24 min

  635. Bit rate : 37.5 kb/s

  636. Count of elements : 3974

  637. Stream size : 38.8 MiB (0%)

  638. Language : Portuguese

  639. Default : No

  640. Forced : No

  641. Original source medium : Blu-ray


  642. Text #21

  643. ID : 36

  644. ID in the original source medium : 4627 (0x1213)

  645. Format : PGS

  646. Muxing mode : zlib

  647. Codec ID : S_HDMV/PGS

  648. Codec ID/Info : Picture based subtitle format used on BDs/HD-DVDs

  649. Duration : 2 h 24 min

  650. Bit rate : 38.6 kb/s

  651. Count of elements : 3416

  652. Stream size : 39.8 MiB (0%)

  653. Language : Romanian

  654. Default : No

  655. Forced : No

  656. Original source medium : Blu-ray


  657. Text #22

  658. ID : 37

  659. ID in the original source medium : 4628 (0x1214)

  660. Format : PGS

  661. Muxing mode : zlib

  662. Codec ID : S_HDMV/PGS

  663. Codec ID/Info : Picture based subtitle format used on BDs/HD-DVDs

  664. Duration : 2 h 24 min

  665. Bit rate : 44.1 kb/s

  666. Count of elements : 4182

  667. Stream size : 45.6 MiB (0%)

  668. Language : Russian

  669. Default : No

  670. Forced : No

  671. Original source medium : Blu-ray


  672. Text #23

  673. ID : 38

  674. ID in the original source medium : 4629 (0x1215)

  675. Format : PGS

  676. Muxing mode : zlib

  677. Codec ID : S_HDMV/PGS

  678. Codec ID/Info : Picture based subtitle format used on BDs/HD-DVDs

  679. Duration : 2 h 24 min

  680. Bit rate : 36.8 kb/s

  681. Count of elements : 3954

  682. Stream size : 38.0 MiB (0%)

  683. Language : Thai

  684. Default : No

  685. Forced : No

  686. Original source medium : Blu-ray


  687. Text #24

  688. ID : 39

  689. ID in the original source medium : 4630 (0x1216)

  690. Format : PGS

  691. Muxing mode : zlib

  692. Codec ID : S_HDMV/PGS

  693. Codec ID/Info : Picture based subtitle format used on BDs/HD-DVDs

  694. Duration : 2 h 24 min

  695. Bit rate : 40.2 kb/s

  696. Count of elements : 3922

  697. Stream size : 41.5 MiB (0%)

  698. Language : Turkish

  699. Default : No

  700. Forced : No

  701. Original source medium : Blu-ray


  702. Menu

  703. 00:00:00.000 : en:Chapter 01

  704. 00:02:43.663 : en:Chapter 02

  705. 00:05:49.182 : en:Chapter 03

  706. 00:07:36.622 : en:Chapter 04

  707. 00:09:08.548 : en:Chapter 05

  708. 00:10:48.981 : en:Chapter 06

  709. 00:13:28.599 : en:Chapter 07

  710. 00:15:01.734 : en:Chapter 08

  711. 00:16:38.414 : en:Chapter 09

  712. 00:19:43.223 : en:Chapter 10

  713. 00:23:46.466 : en:Chapter 11

  714. 00:28:39.718 : en:Chapter 12

  715. 00:31:32.765 : en:Chapter 13

  716. 00:34:36.365 : en:Chapter 14

  717. 00:35:43.558 : en:Chapter 15

  718. 00:37:21.364 : en:Chapter 16

  719. 00:41:27.568 : en:Chapter 17

  720. 00:44:26.413 : en:Chapter 18

  721. 00:48:55.974 : en:Chapter 19

  722. 00:52:04.454 : en:Chapter 20

  723. 00:57:07.549 : en:Chapter 21

  724. 01:01:10.291 : en:Chapter 22

  725. 01:03:46.155 : en:Chapter 23

  726. 01:06:23.312 : en:Chapter 24

  727. 01:07:43.517 : en:Chapter 25

  728. 01:12:32.264 : en:Chapter 26

  729. 01:15:43.288 : en:Chapter 27

  730. 01:18:39.089 : en:Chapter 28

  731. 01:20:02.923 : en:Chapter 29

  732. 01:23:05.438 : en:Chapter 30

  733. 01:25:37.841 : en:Chapter 31

  734. 01:28:14.497 : en:Chapter 32

  735. 01:30:29.465 : en:Chapter 33

  736. 01:33:20.678 : en:Chapter 34

  737. 01:37:52.491 : en:Chapter 35

  738. 01:40:01.912 : en:Chapter 36

  739. 01:42:51.582 : en:Chapter 37

  740. 01:46:33.929 : en:Chapter 38

  741. 01:49:13.922 : en:Chapter 39

  742. 01:53:21.795 : en:Chapter 40

  743. 02:03:56.220 : en:Chapter 41

  744. 02:07:18.797 : en:Chapter 42

  745. 02:09:29.595 : en:Chapter 43

  746. 02:12:00.996 : en:Chapter 44

  747. 02:15:02.219 : en:Chapter 45

  748. 02:18:47.235 : en:Chapter 46

  749. 02:20:33.049 : en:Chapter 47

复制代码

好家伙[中文字幕].Goodfellas.1990.REMASTERED.1080p.BluRay.REMUX.AVC.DTS HD.MA.5.1 FGT 35.02GB  欧美电影  第2张 好家伙[中文字幕].Goodfellas.1990.REMASTERED.1080p.BluRay.REMUX.AVC.DTS HD.MA.5.1 FGT 35.02GB  欧美电影  第3张 好家伙[中文字幕].Goodfellas.1990.REMASTERED.1080p.BluRay.REMUX.AVC.DTS HD.MA.5.1 FGT 35.02GB  欧美电影  第4张



文件下载


除非特别注明,本文『好家伙[中文字幕].Goodfellas.1990.REMASTERED.1080p.BluRay.REMUX.AVC.DTS-HD.MA.5.1-FGT 35.02GB』来源于互联网机器人自动抓取,非本站原创。 浮游电影网不对本文拥有版权,如有侵犯,请联系邮箱:fuyouu#yandex.com[#换成@]投诉。我们会在15个工作日内删除。 但烦请转载时请标明出处:“本文转载于『浮游电影网』,原文地址:https://www.fuyouu.com/21414.html

评论吧骚年!

发表你的见解   

昵称*

E-mail*(建议输入,以便收到博主回复的提示邮件)

验证码*

您可以使用eMule或eMule Mod(Windows)、aMule(Win、Linux、Mac)等软件下载eD2k链接。。
eMule收藏集(.emulecollection)文件是您选中的所有链接的列表文件。eMule可以直接下载它们。
按住SHIFT键选择可以选中多个选择框。
可用文件名和大小选择器来选择文件。
文件名选择器帮您根据文件名称或后缀来选择文件。不分大小写。
符号使用:
和:空格( )、+
不包含:-
或:|
转义:一对英文引号("");
匹配开头:^
匹配结尾:$
例如:
选中所有名称中包含有“eMule”或“0.49c”字眼,但不包含有“exe”字眼的:emule|0.49c -exe
选中所有名称的开头是“eMule”,结尾是“0.49c”的:^emule 0.49c$
选中所有名称中带有“eMule 0.49c”的(必须是“eMule 0.49c”,中间没有别的字符,不能是“eMule fake 0.49c”),需要转义:"emule 0.49c"
大小选择器帮您根据文件大小选择文件。