当前位置: 首页 >> 国产电影 >> 奇迹·笨小孩[杜比视界版本][国语配音/中文字幕].Nice.View.2022.DV.2160p.WEB-DL.H265.DDP5.1-CTRLWEB 10.36GB >> 正文

奇迹·笨小孩[杜比视界版本][国语配音/中文字幕].Nice.View.2022.DV.2160p.WEB-DL.H265.DDP5.1-CTRLWEB 10.36GB

2022年04月16日 12:28:44     电影发布:来源于网络     电影分类:国产电影     评论(0)    

奇迹·笨小孩[杜比视界版本][国语配音/中文字幕].Nice.View.2022.DV.2160p.WEB DL.H265.DDP5.1 CTRLWEB 10.36GB  国产电影  第1张

◎译 名 奇迹·笨小孩 / 奇迹 / 奇迹年代 / Nice View

◎年 代 2022

◎产 地 中国大陆

◎类 别 剧情

◎语 言 汉语普通话

◎上映日期 2022-02-01(中国大陆)

◎IMDb链接 https://www.imdb.com/title/tt15783462/

◎豆瓣评分 7.4/10 (315126人评价)

◎豆瓣链接 https://movie.douban.com/subject/35312437/

◎片 长 106分钟

◎导 演 文牧野 Muye Wen (id:1349765)

◎编 剧 周楚岑 Chucen Zhou (id:1384575)

修梦迪 Mengdi Xiu (id:1424243)

文牧野 Muye Wen (id:1349765)

韩晓邯 Xiaohan Han (id:1458256)

钟伟 Wei Zhong (id:1391650)

◎演 员 易烊千玺 Jackson Yee (id:1340022)

田雨 Yu Tian (id:1316331)

陈哈琳 Halin Chen (id:1458272)

齐溪 Xi Qi (id:1318634)

公磊 Lei Gong (id:1322905)

许君聪 Juncong Xu (id:1362516)

王宁 Ning Wang (id:1329167)

黄尧 Yao Huang (id:1378152)

巩金国 Jinguo Gong (id:1371777)

田壮壮 Zhuangzhuang Tian (id:1274287)

王传君 Chuanjun Wang (id:1313837)

章宇 Yu Zhang (id:1322072)

张志坚 Zhijian Zhang (id:1313469)

咏梅 Mei Yong (id:1276041)

杨新鸣 Xinming Yang (id:1275510)

徐峥 Zheng Xu (id:1274297)

岳小军 Xiaojun Yue (id:1310743)

朱俊麟 JunLin Zhu (id:1429318)

王丽涵 Lihan Wang (id:1325769)

贾弘逍 Hongxiao Jia (id:1466390)

韩笑 Xiao Han (id:1386801)

孙征宇 Zhengyu Sun (id:1329638)

黄艺馨 Yixin Huang (id:1316861)

修梦迪 Mengdi Xiu (id:1424243)

苏子航 Zihang Su (id:1467697)

郑伊倩 Yiqian Zheng (id:1467698)

丁文博 Wenbo Ding (id:1351384)

陈翊曈 Yitong Chen (id:1439533)

谭泉 Quan Tan (id:1390341)

程昭歌 Zhaoge Cheng (id:1448749)

高海宝 Haibao Gao (id:1394939)

胡昌杰 CHangjie Hu (id:1459834)

胡汝佳 Rujia Hu (id:1467699)

宝马 Baoma (id:1426996)

宁浩 Hao Ning (id:1274265)

王易冰 Yibing Wang (id:1381922)

刘明轶 Mingyi Liu (id:1341091)

李勇 Yong Li (id:1437239)

刘璋飚 (id:1426956)

焦宏奋 Hongfen Jiao (id:1412277)

李捷 Jie Li (id:1403835)

曾茂军 Maojun Zeng (id:1397615)

陈砺志 Lizhi Chen (id:1400325)

郁笑沣 Xiaofeng Yu (id:1417266)

修梦迪 Mengdi Xiu (id:1424243)

尚博英 (id:1466125)

傅若清 Ruoqing Fu (id:1417588)

孟钧 Jun Meng (id:1403837)

尹香今 Xiangjin Yin (id:1420797)

岳洋 Yang Yue (id:1442014)

胡昌杰 CHangjie Hu (id:1459834)

谢好吃 (id:1463382)

黄超 Chao Huang (id:1396798)

王博学 Boxue Wang (id:1393735)

刘景灏 (id:1463383)

王楠 (id:1447751)

李淼 Miao Li (id:1327416)

林思宇 Siyu Lin (id:1419621)

姜超 Chao Jiang (id:1417970)

黄海 Hai Huang (id:1401245)

◎简 介

二十岁的景浩(易烊千玺 饰)独自带着年幼的妹妹来到深圳生活,兄妹俩生活温馨却拮据。为了妹妹高昂的手术费,机缘巧合之下,景浩得到一个机会,本以为美好生活即将来临,却不料遭遇重创。在时间和金钱的双重压力下,毫无退路的景浩决定孤注一掷,而他陷入困境的平凡人生,又能否燃起希望的火花?

电影《奇迹》是中宣部国家电影局2021年重点电影项目,也是2021年重点建党百年献礼片,描述十八大以后新时代年轻人在深圳创业的影片。

  1. ##### MediaInfo ######

  2. General

  3. Complete name : Nice.View.2022.DV.2160p.WEB-DL.H265.DDP5.1-CHDWEB.mp4

  4. Format : MPEG-4

  5. Format profile : Base Media

  6. Codec ID : isom (isom/iso2/mp41)

  7. File size : 10.4 GiB

  8. Duration : 1 h 46 min

  9. Overall bit rate : 14.0 Mb/s

  10. Writing application : Lavf59.0.100

  11. Video

  12. ID : 1

  13. Format : HEVC

  14. Format/Info : High Efficiency Video Coding

  15. Format profile : Main [email protected]@Main

  16. HDR format : Dolby Vision, Version 1.0, dvhe.05.06, BL+RPU

  17. Codec ID : hev1

  18. Codec ID/Info : High Efficiency Video Coding

  19. Duration : 1 h 46 min

  20. Bit rate : 13.6 Mb/s

  21. Width : 3 840 pixels

  22. Height : 2 160 pixels

  23. Display aspect ratio : 16:9

  24. Frame rate mode : Variable

  25. Frame rate : 24.000 FPS

  26. Minimum frame rate : 23.994 FPS

  27. Maximum frame rate : 24.006 FPS

  28. Color space : YUV

  29. Chroma subsampling : 4:2:0

  30. Bit depth : 10 bits

  31. Bits/(Pixel*Frame) : 0.068

  32. Stream size : 10.1 GiB (97%)

  33. Color range : Full

  34. Codec configuration box : hvcC+dvcC

  35. Audio

  36. ID : 2

  37. Format : E-AC-3

  38. Format/Info : Enhanced AC-3

  39. Commercial name : Dolby Digital Plus

  40. Codec ID : ec-3

  41. Duration : 1 h 46 min

  42. Bit rate mode : Constant

  43. Bit rate : 384 kb/s

  44. Channel(s) : 6 channels

  45. Channel layout : L R C LFE Ls Rs

  46. Sampling rate : 48.0 kHz

  47. Frame rate : 31.250 FPS (1536 SPF)

  48. Compression mode : Lossy

  49. Stream size : 292 MiB (3%)

  50. Service kind : Complete Main

  51. Default : Yes

  52. Alternate group : 1


复制代码



文件下载


除非特别注明,本文『奇迹·笨小孩[杜比视界版本][国语配音/中文字幕].Nice.View.2022.DV.2160p.WEB-DL.H265.DDP5.1-CTRLWEB 10.36GB』来源于互联网机器人自动抓取,非本站原创。 浮游电影网不对本文拥有版权,如有侵犯,请联系邮箱:fuyouu#yandex.com[#换成@]投诉。我们会在15个工作日内删除。 但烦请转载时请标明出处:“本文转载于『浮游电影网』,原文地址:https://www.fuyouu.com/21413.html

评论吧骚年!

发表你的见解   

昵称*

E-mail*(建议输入,以便收到博主回复的提示邮件)

验证码*

您可以使用eMule或eMule Mod(Windows)、aMule(Win、Linux、Mac)等软件下载eD2k链接。。
eMule收藏集(.emulecollection)文件是您选中的所有链接的列表文件。eMule可以直接下载它们。
按住SHIFT键选择可以选中多个选择框。
可用文件名和大小选择器来选择文件。
文件名选择器帮您根据文件名称或后缀来选择文件。不分大小写。
符号使用:
和:空格( )、+
不包含:-
或:|
转义:一对英文引号("");
匹配开头:^
匹配结尾:$
例如:
选中所有名称中包含有“eMule”或“0.49c”字眼,但不包含有“exe”字眼的:emule|0.49c -exe
选中所有名称的开头是“eMule”,结尾是“0.49c”的:^emule 0.49c$
选中所有名称中带有“eMule 0.49c”的(必须是“eMule 0.49c”,中间没有别的字符,不能是“eMule fake 0.49c”),需要转义:"emule 0.49c"
大小选择器帮您根据文件大小选择文件。