当前位置: 首页 >> 港台电影 >> 爱寻迷[国语配音/中文字幕].Enthralled.2014.2160p.WEB-DL.H265.AAC-CTRLWEB 12.65GB >> 正文

爱寻迷[国语配音/中文字幕].Enthralled.2014.2160p.WEB-DL.H265.AAC-CTRLWEB 12.65GB

2022年04月16日 12:27:48     电影发布:来源于网络     电影分类:港台电影     评论(0)    

爱寻迷[国语配音/中文字幕].Enthralled.2014.2160p.WEB DL.H265.AAC CTRLWEB 12.65GB  港台电影  第1张

◎译 名 爱寻迷 / Enthralled / Love, Search, Bewildered

◎片 名 愛·尋·迷

◎年 代 2014

◎产 地 中国香港

◎类 别 剧情

◎语 言 粤语

◎上映日期 2014-04-10(中国香港)

◎IMDb链接 https://www.imdb.com/title/tt3626430/

◎豆瓣评分 5.1/10 (1928人评价)

◎豆瓣链接 https://movie.douban.com/subject/24857827/

◎片 长 110分钟

◎导 演 陶杰 Chip Tsao (id:1340323)

◎编 剧 陶杰 Chip Tsao (id:1340323)

文隽 Manfred Wong (id:1274823)

◎演 员 关楚耀 Kelvin Kwan Chor-yiu (id:1322974)

罗霖 Candy Luo (id:1326269)

盛朗熙 Joy Sheng (id:1338954)

徐天佑 Tien You Chui (id:1197244)

孙慧雪 Snow Suen (id:1328784)

刘碧丽 Mandy Lieu (id:1314223)

张国强 Kwok Keung Cheung (id:1274568)

龚慈恩 Mimi Kung (id:1313657)

吴国耀 Christopher Goh (id:1339542)

林德信 Alex Lam (id:1336855)

顾定轩 Zeno Koo (id:1384688)

翁秀兰 Shirley Yung Sau-Lan (id:1355762)

黎小田 Siu-Tin Lei (id:1289746)

◎简 介

阿贤、阿乐(徐天佑 饰)和阿星(关楚耀 饰)曾经是形影不离的死党,然而命运让他们分离,相互之前了无音信。一转眼二十年过去,曾经的单纯男孩如今都已经成长为了能够独当一面的真男人,当他们在社交网络上重新获得彼此的讯息因而再聚首之时,会发生怎样有趣的故事呢?

阿贤爱上了一名有夫之妇,深陷在情欲的海洋之中无法自拔。阿乐只是一介平凡的讲师,郁郁寡欢的母亲去世之后,他迫切的想要见到在幼年时代抛弃他们母子两人的父亲,因此踏上了漫漫寻亲之路。阿星自小家贫,如今成为理发师的他于偶然之中结识了一位富豪太太,在她的身上,阿星似乎看到了出人头地的希望。

  1. ##### MediaInfo ######

  2. General

  3. Complete name : Enthralled.2014.2160p.WEB-DL.H265.AAC-CHDWEB.mp4

  4. Format : MPEG-4

  5. Format profile : Base Media

  6. Codec ID : isom (isom/iso2/mp41)

  7. File size : 12.7 GiB

  8. Duration : 1 h 46 min

  9. Overall bit rate : 17.1 Mb/s

  10. Recorded date : 2022-04-14T15:17:28.8026723+08:00

  11. Writing application : Lavf59.16.100

  12. Video

  13. ID : 1

  14. Format : HEVC

  15. Format/Info : High Efficiency Video Coding

  16. Format profile : [email protected]@High

  17. Codec ID : hev1

  18. Codec ID/Info : High Efficiency Video Coding

  19. Duration : 1 h 46 min

  20. Bit rate : 16.9 Mb/s

  21. Width : 3 840 pixels

  22. Height : 2 152 pixels

  23. Display aspect ratio : 16:9

  24. Frame rate mode : Constant

  25. Frame rate : 24.000 FPS

  26. Color space : YUV

  27. Chroma subsampling : 4:2:0

  28. Bit depth : 8 bits

  29. Bits/(Pixel*Frame) : 0.085

  30. Stream size : 12.6 GiB (99%)

  31. Codec configuration box : hvcC

  32. Audio

  33. ID : 2

  34. Format : AAC LC

  35. Format/Info : Advanced Audio Codec Low Complexity

  36. Codec ID : mp4a-40-2

  37. Duration : 1 h 46 min

  38. Bit rate mode : Constant

  39. Bit rate : 125 kb/s

  40. Channel(s) : 2 channels

  41. Channel layout : L R

  42. Sampling rate : 44.1 kHz

  43. Frame rate : 43.066 FPS (1024 SPF)

  44. Compression mode : Lossy

  45. Stream size : 94.6 MiB (1%)

  46. Default : Yes

  47. Alternate group : 1


复制代码



文件下载


除非特别注明,本文『爱寻迷[国语配音/中文字幕].Enthralled.2014.2160p.WEB-DL.H265.AAC-CTRLWEB 12.65GB』来源于互联网机器人自动抓取,非本站原创。 浮游电影网不对本文拥有版权,如有侵犯,请联系邮箱:fuyouu#yandex.com[#换成@]投诉。我们会在15个工作日内删除。 但烦请转载时请标明出处:“本文转载于『浮游电影网』,原文地址:https://www.fuyouu.com/21412.html

评论吧骚年!

发表你的见解   

昵称*

E-mail*(建议输入,以便收到博主回复的提示邮件)

验证码*

您可以使用eMule或eMule Mod(Windows)、aMule(Win、Linux、Mac)等软件下载eD2k链接。。
eMule收藏集(.emulecollection)文件是您选中的所有链接的列表文件。eMule可以直接下载它们。
按住SHIFT键选择可以选中多个选择框。
可用文件名和大小选择器来选择文件。
文件名选择器帮您根据文件名称或后缀来选择文件。不分大小写。
符号使用:
和:空格( )、+
不包含:-
或:|
转义:一对英文引号("");
匹配开头:^
匹配结尾:$
例如:
选中所有名称中包含有“eMule”或“0.49c”字眼,但不包含有“exe”字眼的:emule|0.49c -exe
选中所有名称的开头是“eMule”,结尾是“0.49c”的:^emule 0.49c$
选中所有名称中带有“eMule 0.49c”的(必须是“eMule 0.49c”,中间没有别的字符,不能是“eMule fake 0.49c”),需要转义:"emule 0.49c"
大小选择器帮您根据文件大小选择文件。