当前位置: 首页 >> 欧美电影 >> 致命玩笑[共3部合集][繁体字幕].Joy.Ride.1-3.2001-2014.BluRay.1080p.DTS-HD.MA5.1.x265.10bit-ALT 24.86GB >> 正文

致命玩笑[共3部合集][繁体字幕].Joy.Ride.1-3.2001-2014.BluRay.1080p.DTS-HD.MA5.1.x265.10bit-ALT 24.86GB

2022年04月16日 12:22:21     电影发布:来源于网络     电影分类:欧美电影     评论(0)    

致命玩笑[共3部合集][繁体字幕].Joy.Ride.1 3.2001 2014.BluRay.1080p.DTS HD.MA5.1.x265.10bit ALT 24.86GB  欧美电影  第1张

◎译 名 致命玩笑2 / 死神勾线2:公路狂屠

◎片 名 Joy Ride: Dead Ahead

◎年 代 2008

◎产 地 美国 / 加拿大

◎类 别 惊悚 / 恐怖

◎语 言 英语

◎上映日期 2008-10-07

◎IMDb链接 https://www.imdb.com/title/tt1140941/

◎豆瓣评分 5.7/10 (2061人评价)

◎豆瓣链接 https://movie.douban.com/subject/3011472/

◎片 长 91 分钟

◎导 演 路易斯·莫纽 Louis Morneau (id:1276692)

◎编 剧 班内特·耶林 Bennett Yellin (id:1042068)

J·J·艾布拉姆斯 J.J. Abrams (id:1010542)

◎演 员 尼克·扎诺 Nick Zano (id:1031941)

凯尔·施密德 Kyle Schmid (id:1022722)

妮基·艾考克斯 Nicki Aycox (id:1017993)

劳拉乔丹 Laura Jordan (id:1186387)

Rebecca Davis Rebecca Davis (id:1199176)

罗布·卡彭特 Rob Carpenter (id:1169687)

麦肯锡·葛雷 Mackenzie Gray (id:1092940)

丹尼尔·博乐奥 Daniel Boileau (id:1062647)

Lyle St. Goddard Lyle St. Goddard (id:1150268)

乔·克雷默 Joe Kraemer (id:1383864)

Jason L. Wood Jason L. Wood (id:1304697)

比尔·特雷扎基斯 Bill Terezakis (id:1299071)

Jessica Rain Jessica Rain (id:1295144)

Alexia S. Droz Alexia S. Droz (id:1085457)

大卫·马科维茨 David Markowitz (id:1125072)

安东·阿格博 Anton Agerbo (id:1410099)

Warren Hickman Warren Hickman (id:1096593)

◎简 介

凯拉(劳拉·乔丹 Laura Jordan 饰)、梅丽莎(尼姬·埃克斯 Nicki Aycox 饰)、鲍比(尼克·扎诺 Nick Zano 饰)和尼克(凯尔·施密德 Kyle Schmid 饰)等四个年轻人正驱车前往拉斯维加斯,准备参加那里举行的聚会。他们的车载半路抛锚,四人寻求帮助时在荒野找到一座空无一人的房子,继而在仓库里找到一辆跑车。经过一番讨论,他们决定留下联系方式,暂时把车开走,并负责赔偿车主的损失。

然而他们的想法过于天真,这辆汽车的主人正是恐怖的锈钉(马克·吉本 Mark Gibbon 饰),凯拉等人破门而入和偷走汽车的行为彻底惹恼了他,锈钉的疯狂狩猎也随即展开。凯拉等人命悬一线……

  1. 合集文件列表:

  2. 1.Joy.Ride.2.2008.BluRay.1080p.DTS-HD.MA5.1.x265.10bit-ALT.mkv 7.75GB

  3. 2.Joy.Ride.3.2014.BluRay.1080p.DTS-HD.MA5.1.x265.10bit-ALT.mkv 8.38GB

  4. 3.Joy.Ride.2001.BluRay.1080p.DTS-HD.MA5.1.x265.10bit-ALT.mkv 8.73GB


复制代码

  1. ##### MediaInfo ######

  2. General

  3. Unique ID : 56891485794110258078089195309648659824 (0x2ACCE6CFB9FFFED14D88DDECB6F54570)

  4. Complete name : Joy.Ride.2.2008.BluRay.1080p.DTS-HD.MA5.1.x265.10bit-BeiTai.mkv

  5. Format : Matroska

  6. Format version : Version 4

  7. File size : 7.75 GiB

  8. Duration : 1 h 31 min

  9. Overall bit rate mode : Variable

  10. Overall bit rate : 12.2 Mb/s

  11. Encoded date : UTC 2022-04-15 09:01:03

  12. Writing application : mkvmerge v49.0.0 ('Sick Of Losing Soulmates') 64-bit

  13. Writing library : libebml v1.4.0 + libmatroska v1.6.1

  14. Video

  15. ID : 1

  16. Format : HEVC

  17. Format/Info : High Efficiency Video Coding

  18. Format profile : Main [email protected]@High

  19. Codec ID : V_MPEGH/ISO/HEVC

  20. Duration : 1 h 31 min

  21. Bit rate : 10.2 Mb/s

  22. Width : 1 920 pixels

  23. Height : 1 080 pixels

  24. Display aspect ratio : 16:9

  25. Frame rate mode : Constant

  26. Frame rate : 23.976 (24000/1001/53354) FPS

  27. Color space : YUV

  28. Chroma subsampling : 4:2:0

  29. Bit depth : 10 bits

  30. Bits/(Pixel*Frame) : 0.205

  31. Stream size : 6.48 GiB (84%)

  32. Title : HEVC, [email protected]@High, 24/1.001 fps @ 10177 kbps

  33. Writing library : x265 3.5+36-1f2c8da77:[Windows][GCC 11.2.0][64 bit] 10bit

  34. Encoding settings : cpuid=533541111039 / frame-threads=4 / numa-pools=16 / wpp / pmode / pme / no-psnr / no-ssim / log-level=2 / input-csp=1 / input-res=1920x1080 / interlace=0 / total-frames=131040 / level-idc=51 / high-tier=1 / uhd-bd=0 / ref=5 / no-allow-non-conformance / no-repeat-headers / annexb / no-aud / no-eob / no-eos / no-hrd / info / hash=0 / no-temporal-layers / open-gop / min-keyint=24 / keyint=240 / gop-lookahead=0 / bframes=6 / b-adapt=2 / b-pyramid / bframe-bias=0 / rc-lookahead=40 / lookahead-slices=0 / NTMzNTQ=uuDQuD2mJt9fsCf / scenecut=40 / no-hist-scenecut / radl=0 / no-splice / no-intra-refresh / ctu=32 / min-cu-size=8 / no-rect / no-amp / max-tu-size=32 / tu-inter-depth=3 / tu-intra-depth=3 / limit-tu=4 / rdoq-level=2 / dynamic-rd=0.00 / no-ssim-rd / signhide / no-tskip / nr-intra=0 / nr-inter=0 / no-constrained-intra / no-strong-intra-smoothing / max-merge=4 / limit-refs=1 / limit-modes / me=3 / subme=4 / merange=25 / temporal-mvp / no-frame-dup / no-hme / weightp / weightb / no-analyze-src-pics / deblock=-3:-3 / no-sao / no-sao-non-deblock / rd=6 / selective-sao=0 / no-early-skip / rskip / no-fast-intra / no-tskip-fast / no-cu-lossless / b-intra / no-splitrd-skip / rdpenalty=0 / psy-rd=2.00 / psy-rdoq=1.00 / no-rd-refine / no-lossless / cbqpoffs=0 / crqpoffs=0 / rc=crf / crf=17.0 / qcomp=0.65 / qpstep=4 / stats-write=0 / stats-read=0 / vbv-maxrate=80000 / vbv-bufsize=80000 / vbv-init=0.9 / min-vbv-fullness=50.0 / max-vbv-fullness=80.0 / crf-max=0.0 / crf-min=0.0 / ipratio=1.40 / pbratio=1.30 / aq-mode=2 / aq-strength=0.85 / cutree / zone-count=0 / no-strict-cbr / qg-size=32 / no-rc-grain / qpmax=69 / qpmin=0 / no-const-vbv / sar=1 / overscan=0 / videoformat=5 / range=0 / colorprim=1 / transfer=1 / colormatrix=1 / chromaloc=0 / display-window=0 / cll=0,0 / min-luma=0 / max-luma=1023 / log2-max-poc-lsb=8 / vui-timing-info / vui-hrd-info / slices=1 / no-opt-qp-pps / no-opt-ref-list-length-pps / no-multi-pass-opt-rps / scenecut-bias=0.05 / hist-threshold=0.03 / no-opt-cu-delta-qp / no-aq-motion / no-hdr10 / no-hdr10-opt / no-dhdr10-opt / no-idr-recovery-sei / analysis-reuse-level=0 / analysis-save-reuse-level=0 / analysis-load-reuse-level=0 / scale-factor=0 / refine-intra=0 / refine-inter=0 / refine-mv=1 / refine-ctu-distortion=0 / no-limit-sao / ctu-info=0 / no-lowpass-dct / refine-analysis-type=0 / copy-pic=1 / max-ausize-factor=1.0 / no-dynamic-refine / no-single-sei / no-hevc-aq / no-svt / no-field / qp-adaptation-range=1.00 / scenecut-aware-qp=0conformance-window-offsets / right=0 / bottom=0 / NTMzNTQ= / decoder-max-rate=0 / no-vbv-live-multi-pass

  35. Language : English

  36. Default : Yes

  37. Forced : No

  38. Color range : Limited

  39. Color primaries : BT.709

  40. Transfer characteristics : BT.709

  41. Matrix coefficients : BT.709

  42. Audio

  43. ID : 2

  44. Format : DTS XLL

  45. Format/Info : Digital Theater Systems

  46. Commercial name : DTS-HD Master Audio

  47. Codec ID : A_DTS

  48. Duration : 1 h 31 min

  49. Bit rate mode : Variable

  50. Bit rate : 1 972 kb/s

  51. Channel(s) : 6 channels

  52. Channel layout : C L R Ls Rs LFE

  53. Sampling rate : 48.0 kHz

  54. Frame rate : 93.750 FPS (512 SPF)

  55. Bit depth : 16 bits

  56. Compression mode : Lossless

  57. Stream size : 1.25 GiB (16%)

  58. Title : English DTS-HD Master Audio 5.1 @ 1972 kbps

  59. Language : English

  60. Default : Yes

  61. Forced : No

  62. Text #1

  63. ID : 3

  64. Format : PGS

  65. Codec ID : S_HDMV/PGS

  66. Codec ID/Info : Picture based subtitle format used on BDs/HD-DVDs

  67. Duration : 1 h 26 min

  68. Bit rate : 14.5 kb/s

  69. Count of elements : 1676

  70. Stream size : 8.97 MiB (0%)

  71. Title : hs/SUP 简体

  72. Language : Chinese

  73. Default : Yes

  74. Forced : No

  75. Text #2

  76. ID : 4

  77. Format : PGS

  78. Codec ID : S_HDMV/PGS

  79. Codec ID/Info : Picture based subtitle format used on BDs/HD-DVDs

  80. Duration : 1 h 26 min

  81. Bit rate : 14.9 kb/s

  82. Count of elements : 1676

  83. Stream size : 9.24 MiB (0%)

  84. Title : Cht/SUP 繁体

  85. Language : Chinese

  86. Default : No

  87. Forced : No


复制代码



文件下载


除非特别注明,本文『致命玩笑[共3部合集][繁体字幕].Joy.Ride.1-3.2001-2014.BluRay.1080p.DTS-HD.MA5.1.x265.10bit-ALT 24.86GB』来源于互联网机器人自动抓取,非本站原创。 浮游电影网不对本文拥有版权,如有侵犯,请联系邮箱:fuyouu#yandex.com[#换成@]投诉。我们会在15个工作日内删除。 但烦请转载时请标明出处:“本文转载于『浮游电影网』,原文地址:https://www.fuyouu.com/21407.html

评论吧骚年!

发表你的见解   

昵称*

E-mail*(建议输入,以便收到博主回复的提示邮件)

验证码*

您可以使用eMule或eMule Mod(Windows)、aMule(Win、Linux、Mac)等软件下载eD2k链接。。
eMule收藏集(.emulecollection)文件是您选中的所有链接的列表文件。eMule可以直接下载它们。
按住SHIFT键选择可以选中多个选择框。
可用文件名和大小选择器来选择文件。
文件名选择器帮您根据文件名称或后缀来选择文件。不分大小写。
符号使用:
和:空格( )、+
不包含:-
或:|
转义:一对英文引号("");
匹配开头:^
匹配结尾:$
例如:
选中所有名称中包含有“eMule”或“0.49c”字眼,但不包含有“exe”字眼的:emule|0.49c -exe
选中所有名称的开头是“eMule”,结尾是“0.49c”的:^emule 0.49c$
选中所有名称中带有“eMule 0.49c”的(必须是“eMule 0.49c”,中间没有别的字符,不能是“eMule fake 0.49c”),需要转义:"emule 0.49c"
大小选择器帮您根据文件大小选择文件。