当前位置: 首页 >> 国产电影 >> 闺蜜[共2部合集][国粤英多音轨/简繁英字幕].Girls.2014-2018.BluRay.1080p.2Audio.TrueHD.5.1.x265.10bit-ALT 17.78GB >> 正文

闺蜜[共2部合集][国粤英多音轨/简繁英字幕].Girls.2014-2018.BluRay.1080p.2Audio.TrueHD.5.1.x265.10bit-ALT 17.78GB

2022年04月16日 12:21:25     电影发布:来源于网络     电影分类:国产电影     评论(0)    

闺蜜[共2部合集][国粤英多音轨/简繁英字幕].Girls.2014 2018.BluRay.1080p.2Audio.TrueHD.5.1.x265.10bit ALT 17.78GB  国产电影  第1张

◎译 名 闺蜜 / Girls

◎年 代 2014

◎产 地 中国大陆

◎类 别 喜剧 / 爱情

◎语 言 汉语普通话

◎上映日期 2014-07-30(中国大陆)

◎IMDb链接 https://www.imdb.com/title/tt4074114/

◎豆瓣评分 5.3/10 (100723人评价)

◎豆瓣链接 https://movie.douban.com/subject/25777330/

◎片 长 118分钟

◎导 演 黄真真 Chun-Chun Wong (id:1274280)

◎编 剧 黄真真 Chun-Chun Wong (id:1274280)

侯颖桁 Silver Hau Wing-Hang (id:1329767)

郑善瑜 Skipper Cheng (id:1329768)

李敏 Erica Li (id:1289664)

◎演 员 陈意涵 Ivy Chen (id:1274316)

薛凯琪 Fiona Sit (id:1023827)

杨子姗 Zishan Yang (id:1312862)

余文乐 Shawn Yue (id:1041510)

钟汉良 Wallace Chung (id:1274318)

吴建豪 Vanness Wu (id:1201063)

雷婕熙 J.C Lei (id:1359267)

邱志宇 Oscar Chiu (id:1389248)

黄真真 Chun-Chun Wong (id:1274280)

朱圣祎 Shengyi Zhu (id:1347875)

董宸辰 Chenchen Dong (id:1419013)

林朝阳 Chaoyang Lin (id:1426070)

何罡 Gang He (id:1430081)

陈诚 Cheng Chen (id:1348555)

汤湘竹 Shiang-Chu Tang (id:1298902)

杜笃之 Du-Che Tu (id:1275159)

◎简 介

希汶(陈意涵 饰)、Kimmy(薛凯琪 饰)和小美(杨子珊 饰)一直是无话不谈的闺蜜,三人大学毕业后开始了同居生活。乖乖女希汶的生活重心全放在了相爱7年的未婚夫林杰(钟汉良 饰)身上,可随着林杰的出轨,三姐妹的生活全被打乱了。无男不欢的白富美Kimmy和酷酷的小美不得不 全天候照顾因失恋而混乱的希汶,但是她们俩为闺蜜的两肋插刀都比不上暖男乔立(余文乐 饰)的出现。当希汶正为乔立的性取向怀疑时,Kimmy和小美却陷入了与摇滚音乐人九天(吴建豪 饰)的三角恋中,并随着九天赴欧洲的演唱会而变得白热化,希汶与Kimmy都不支持小美和九天的恋情,而且小美要坚持与九天一起去演唱会,就不得不放弃现有的副导演工作。三人的友情危机一触即发,小美最终会何去何从?

导演黄真真也出演了本片,扮演了自己,并且还原了自己的纪录片代表作《女人那话儿》的拍摄现场。

◎获奖情况 (共3项)

第34届香港电影金像奖 (2015)

最佳女配角(提名)

└──薛凯琪 (id:1023827)

第15届华语电影传媒大奖 (2015)

观众票选最受瞩目女演员(提名)

└──杨子姗 (id:1312862)

第1届豆瓣电影年度榜单 (2014)

8月最受关注电影(提名)

  1. 合集文件列表:

  2. 1.Girls.2014.BluRay.1080p.2Audio.TrueHD.5.1.x265.10bit-ALT.mkv 8.26GB

  3. 2.Girls.vs.Gangsters.2018.BluRay.1080p.TrueHD.5.1.x265.10bit-ALT.mkv 9.52GB


复制代码

  1. ##### MediaInfo ######

  2. General

  3. Unique ID : 267551155405815810543020734697323181318 (0xC9487A6A577D061ECD1C3324B6D53506)

  4. Complete name : Girls.2014.BluRay.1080p.2Audio.TrueHD.5.1.x265.10bit-BeiTai.mkv

  5. Format : Matroska

  6. Format version : Version 4

  7. File size : 8.26 GiB

  8. Duration : 2 h 0 min

  9. Overall bit rate mode : Variable

  10. Overall bit rate : 9 799 kb/s

  11. Encoded date : UTC 2022-04-15 05:47:56

  12. Writing application : mkvmerge v49.0.0 ('Sick Of Losing Soulmates') 64-bit

  13. Writing library : libebml v1.4.0 + libmatroska v1.6.1

  14. Video

  15. ID : 1

  16. Format : HEVC

  17. Format/Info : High Efficiency Video Coding

  18. Format profile : Main [email protected]@High

  19. Codec ID : V_MPEGH/ISO/HEVC

  20. Duration : 2 h 0 min

  21. Bit rate : 5 789 kb/s

  22. Width : 1 920 pixels

  23. Height : 804 pixels

  24. Display aspect ratio : 2.40:1

  25. Frame rate mode : Constant

  26. Frame rate : 24.000 FPS

  27. Color space : YUV

  28. Chroma subsampling : 4:2:0

  29. Bit depth : 10 bits

  30. Bits/(Pixel*Frame) : 0.156

  31. Stream size : 4.88 GiB (59%)

  32. Title : HEVC, [email protected]@High, 24 fps @ 5788 kbps

  33. Writing library : x265 3.5+36-1f2c8da77:[Windows][GCC 11.2.0][64 bit] 10bit

  34. Encoding settings : cpuid=533541049071 / frame-threads=3 / numa-pools=8 / wpp / pmode / pme / no-psnr / no-ssim / log-level=2 / input-csp=1 / input-res=1920x804 / interlace=0 / total-frames=173746 / level-idc=51 / high-tier=1 / uhd-bd=0 / ref=5 / no-allow-non-conformance / no-repeat-headers / annexb / no-aud / no-eob / no-eos / no-hrd / info / hash=0 / no-temporal-layers / open-gop / min-keyint=24 / keyint=240 / gop-lookahead=0 / bframes=6 / b-adapt=2 / b-pyramid / bframe-bias=0 / rc-lookahead=40 / lookahead-slices=0 / NTMzNTQ=uuDQuD2mJt9fsCf / scenecut=40 / no-hist-scenecut / radl=0 / no-splice / no-intra-refresh / ctu=32 / min-cu-size=8 / no-rect / no-amp / max-tu-size=32 / tu-inter-depth=3 / tu-intra-depth=3 / limit-tu=4 / rdoq-level=2 / dynamic-rd=0.00 / no-ssim-rd / signhide / no-tskip / nr-intra=0 / nr-inter=0 / no-constrained-intra / no-strong-intra-smoothing / max-merge=4 / limit-refs=1 / limit-modes / me=3 / subme=4 / merange=25 / temporal-mvp / no-frame-dup / no-hme / weightp / weightb / no-analyze-src-pics / deblock=-3:-3 / no-sao / no-sao-non-deblock / rd=6 / selective-sao=0 / no-early-skip / rskip / no-fast-intra / no-tskip-fast / no-cu-lossless / b-intra / no-splitrd-skip / rdpenalty=0 / psy-rd=2.00 / psy-rdoq=1.00 / no-rd-refine / no-lossless / cbqpoffs=0 / crqpoffs=0 / rc=crf / crf=17.0 / qcomp=0.65 / qpstep=4 / stats-write=0 / stats-read=0 / vbv-maxrate=80000 / vbv-bufsize=80000 / vbv-init=0.9 / min-vbv-fullness=50.0 / max-vbv-fullness=80.0 / crf-max=0.0 / crf-min=0.0 / ipratio=1.40 / pbratio=1.30 / aq-mode=2 / aq-strength=0.85 / cutree / zone-count=0 / no-strict-cbr / qg-size=32 / no-rc-grain / qpmax=69 / qpmin=0 / no-const-vbv / sar=1 / overscan=0 / videoformat=5 / range=0 / colorprim=1 / transfer=1 / colormatrix=1 / chromaloc=0 / display-window=0 / cll=0,0 / min-luma=0 / max-luma=1023 / log2-max-poc-lsb=8 / vui-timing-info / vui-hrd-info / slices=1 / no-opt-qp-pps / no-opt-ref-list-length-pps / no-multi-pass-opt-rps / scenecut-bias=0.05 / hist-threshold=0.03 / no-opt-cu-delta-qp / no-aq-motion / no-hdr10 / no-hdr10-opt / no-dhdr10-opt / no-idr-recovery-sei / analysis-reuse-level=0 / analysis-save-reuse-level=0 / analysis-load-reuse-level=0 / scale-factor=0 / refine-intra=0 / refine-inter=0 / refine-mv=1 / refine-ctu-distortion=0 / no-limit-sao / ctu-info=0 / no-lowpass-dct / refine-analysis-type=0 / copy-pic=1 / max-ausize-factor=1.0 / no-dynamic-refine / no-single-sei / no-hevc-aq / no-svt / no-field / qp-adaptation-range=1.00 / scenecut-aware-qp=0conformance-window-offsets / right=0 / bottom=0 / NTMzNTQ= / decoder-max-rate=0 / no-vbv-live-multi-pass

  35. Language : English

  36. Default : Yes

  37. Forced : No

  38. Color range : Limited

  39. Color primaries : BT.709

  40. Transfer characteristics : BT.709

  41. Matrix coefficients : BT.709

  42. Audio #1

  43. ID : 2

  44. Format : MLP FBA

  45. Format/Info : Meridian Lossless Packing FBA

  46. Commercial name : Dolby TrueHD

  47. Codec ID : A_TRUEHD

  48. Duration : 2 h 0 min

  49. Bit rate mode : Variable

  50. Bit rate : 2 565 kb/s

  51. Maximum bit rate : 4 140 kb/s

  52. Channel(s) : 6 channels

  53. Channel layout : L R C LFE Ls Rs

  54. Sampling rate : 96.0 kHz

  55. Frame rate : 1 200.000 FPS (80 SPF)

  56. Compression mode : Lossless

  57. Stream size : 2.16 GiB (26%)

  58. Title : Mandarin Dolby TrueHD Audio 5.1 @ 2565 kbps

  59. Language : Chinese

  60. Default : Yes

  61. Forced : No

  62. Audio #2

  63. ID : 3

  64. Format : AC-3

  65. Format/Info : Audio Coding 3

  66. Commercial name : Dolby Digital

  67. Codec ID : A_AC3

  68. Duration : 2 h 0 min

  69. Bit rate mode : Constant

  70. Bit rate : 640 kb/s

  71. Channel(s) : 6 channels

  72. Channel layout : L R C LFE Ls Rs

  73. Sampling rate : 48.0 kHz

  74. Frame rate : 31.250 FPS (1536 SPF)

  75. Compression mode : Lossy

  76. Stream size : 552 MiB (7%)

  77. Title : Mandarin Dolby Digital Audio 5.1 @ 640 kbps

  78. Language : Chinese

  79. Service kind : Complete Main

  80. Default : No

  81. Forced : No

  82. Audio #3

  83. ID : 4

  84. Format : AC-3

  85. Format/Info : Audio Coding 3

  86. Commercial name : Dolby Digital

  87. Codec ID : A_AC3

  88. Duration : 2 h 0 min

  89. Bit rate mode : Constant

  90. Bit rate : 640 kb/s

  91. Channel(s) : 6 channels

  92. Channel layout : L R C LFE Ls Rs

  93. Sampling rate : 48.0 kHz

  94. Frame rate : 31.250 FPS (1536 SPF)

  95. Compression mode : Lossy

  96. Stream size : 552 MiB (7%)

  97. Title : Cantonese Dolby Digital Audio 5.1 @ 640 kbps

  98. Language : Chinese

  99. Service kind : Complete Main

  100. Default : No

  101. Forced : No

  102. Text #1

  103. ID : 5

  104. Format : PGS

  105. Codec ID : S_HDMV/PGS

  106. Codec ID/Info : Picture based subtitle format used on BDs/HD-DVDs

  107. Duration : 1 h 58 min

  108. Bit rate : 34.1 kb/s

  109. Count of elements : 3938

  110. Stream size : 28.8 MiB (0%)

  111. Title : Cht/SUP 原盘繁体

  112. Language : Chinese

  113. Default : No

  114. Forced : No

  115. Text #2

  116. ID : 6

  117. Format : PGS

  118. Codec ID : S_HDMV/PGS

  119. Codec ID/Info : Picture based subtitle format used on BDs/HD-DVDs

  120. Duration : 1 h 58 min

  121. Bit rate : 31.7 kb/s

  122. Count of elements : 3938

  123. Stream size : 26.8 MiB (0%)

  124. Title : Chs/SUP 原盘简体

  125. Language : Chinese

  126. Default : Yes

  127. Forced : No

  128. Text #3

  129. ID : 7

  130. Format : PGS

  131. Codec ID : S_HDMV/PGS

  132. Codec ID/Info : Picture based subtitle format used on BDs/HD-DVDs

  133. Duration : 1 h 58 min

  134. Bit rate : 32.0 kb/s

  135. Count of elements : 3938

  136. Stream size : 27.0 MiB (0%)

  137. Title : Eng/SUP

  138. Language : English

  139. Default : No

  140. Forced : No

  141. Menu

  142. 00:00:00.000 : en:第 01 章

  143. 00:07:07.542 : en:第 02 章

  144. 00:12:23.792 : en:第 03 章

  145. 00:17:42.667 : en:第 04 章

  146. 00:25:00.375 : en:第 05 章

  147. 00:30:20.167 : en:第 06 章

  148. 00:36:07.833 : en:第 07 章

  149. 00:41:59.917 : en:第 08 章

  150. 00:48:22.708 : en:第 09 章

  151. 00:55:15.083 : en:第 10 章

  152. 01:00:35.708 : en:第 11 章

  153. 01:07:59.833 : en:第 12 章

  154. 01:12:42.208 : en:第 13 章

  155. 01:18:46.333 : en:第 14 章

  156. 01:25:10.417 : en:第 15 章

  157. 01:29:14.625 : en:第 16 章

  158. 01:35:31.083 : en:第 17 章

  159. 01:42:32.833 : en:第 18 章

  160. 01:47:44.333 : en:第 19 章

  161. 01:56:48.167 : en:第 20 章


复制代码



文件下载


除非特别注明,本文『闺蜜[共2部合集][国粤英多音轨/简繁英字幕].Girls.2014-2018.BluRay.1080p.2Audio.TrueHD.5.1.x265.10bit-ALT 17.78GB』来源于互联网机器人自动抓取,非本站原创。 浮游电影网不对本文拥有版权,如有侵犯,请联系邮箱:fuyouu#yandex.com[#换成@]投诉。我们会在15个工作日内删除。 但烦请转载时请标明出处:“本文转载于『浮游电影网』,原文地址:https://www.fuyouu.com/21406.html

评论吧骚年!

发表你的见解   

昵称*

E-mail*(建议输入,以便收到博主回复的提示邮件)

验证码*

您可以使用eMule或eMule Mod(Windows)、aMule(Win、Linux、Mac)等软件下载eD2k链接。。
eMule收藏集(.emulecollection)文件是您选中的所有链接的列表文件。eMule可以直接下载它们。
按住SHIFT键选择可以选中多个选择框。
可用文件名和大小选择器来选择文件。
文件名选择器帮您根据文件名称或后缀来选择文件。不分大小写。
符号使用:
和:空格( )、+
不包含:-
或:|
转义:一对英文引号("");
匹配开头:^
匹配结尾:$
例如:
选中所有名称中包含有“eMule”或“0.49c”字眼,但不包含有“exe”字眼的:emule|0.49c -exe
选中所有名称的开头是“eMule”,结尾是“0.49c”的:^emule 0.49c$
选中所有名称中带有“eMule 0.49c”的(必须是“eMule 0.49c”,中间没有别的字符,不能是“eMule fake 0.49c”),需要转义:"emule 0.49c"
大小选择器帮您根据文件大小选择文件。