当前位置: 首页 >> 日韩电影 >> 透视画男孩与全景画女孩[简体字幕].Georama.Boy.Panorama.Girl.2020.1080p.CatchPlay.WEB-DL.AAC2.0.H264-CTRLWEB 3.05GB >> 正文

透视画男孩与全景画女孩[简体字幕].Georama.Boy.Panorama.Girl.2020.1080p.CatchPlay.WEB-DL.AAC2.0.H264-CTRLWEB 3.05GB

2022年04月16日 12:20:17     电影发布:来源于网络     电影分类:日韩电影     评论(0)    

透视画男孩与全景画女孩[简体字幕].Georama.Boy.Panorama.Girl.2020.1080p.CatchPlay.WEB DL.AAC2.0.H264 CTRLWEB 3.05GB 爱情 剧情 日韩电影  第1张

◎译 名 透视画男孩与全景画女孩 / 透视画男孩,全景画女孩(台) / Diorama Boy and Panorama Girl

◎片 名 ジオラマボーイ?パノラマガール

◎年 代 2020

◎产 地 日本

◎类 别 剧情 / 爱情

◎语 言 日语

◎上映日期 2020-11-06(日本)

◎IMDb链接 https://www.imdb.com/title/tt13977868/

◎豆瓣评分 5.7/10 (381人评价)

◎豆瓣链接 https://movie.douban.com/subject/34851209/

◎片 长 105分钟

◎导 演 濑田夏希 Natsuki Seta (id:1319256)

◎编 剧 冈崎京子 Ky?ko Okazaki (id:1399597)

濑田夏希 Natsuki Seta (id:1319256)

◎演 员 山田杏奈 Anna Yamada (id:1364327)

铃木仁 Suzuki Jin (id:1394776)

森田望智 Misato Morita (id:1419945)

成海璃子 Riko Narumi (id:1023486)

大塚宁宁 Nene ?tsuka (id:1020385)

齐藤阳一郎 Yoichiro Saito (id:1331984)

黑田大辅 Daisuke Kuroda (id:1338342)

若杉凩 Kogarashi Wakasugi (id:1466828)

泷泽绘里香 Erika Takizawa (id:1466827)

◎简 介

手塚治虫文化奖得主冈崎京子同名原作改编

【公园小情歌】濑田夏树 最新导演作品

【小小恋歌】山田杏奈、铃木仁 再次携手共谱青春物语

涩谷春子(山田杏奈 饰)是一个期待著奇蹟出现的高中少女,某一天晚上,遇见了受伤倒卧在路边的17岁少年神奈川健一(铃木仁 饰),对他一见倾心,这段奇蹟般的「世纪之恋」顿时成为春子平凡日常的精神粮食,而健一遗落的学生证更成了春子的恋爱护身符。然而,认真老实却常常频率异于常人的健一,因为一时衝动而休学,更迷恋上在街头随意搭讪的神祕女子真弓(森田望智 饰),两人发展出一段超乎友谊的危险关係。再次相遇,健一正沉溺于有点笨拙又精彩万分的成人恋爱,早已不记得曾经对他伸出援手的春子。眼见两人一次又一次擦身而过,对于这段平行恋情执著到底的春子究竟该何去何从?

本片改编自手塚治虫文化奖得主冈崎京子的同名漫画,善于描绘年轻人内心情感的冈崎京子,...

  1. ##### MediaInfo ######

  2. General

  3. Unique ID : 95633866836759509684336906789717163015 (0x47F269AC33BD690B98CEE9E40DD23C07)

  4. Complete name : Georam[email protected]CHDWEB.mkv

  5. Format : Matroska

  6. Format version : Version 4

  7. File size : 3.05 GiB

  8. Duration : 1 h 45 min

  9. Overall bit rate mode : Variable

  10. Overall bit rate : 4 134 kb/s

  11. Movie name : Georam[email protected]CHDWEB

  12. Encoded date : UTC 2022-04-15 09:00:08

  13. Writing application : mkvmerge v44.0.0 ('Domino') 64-bit

  14. Writing library : libebml v1.3.10 + libmatroska v1.5.2

  15. Video

  16. ID : 1

  17. Format : AVC

  18. Format/Info : Advanced Video Codec

  19. Format profile : [email protected]

  20. Format settings : CABAC / 4 Ref Frames

  21. Format settings, CABAC : Yes

  22. Format settings, Reference frames : 4 frames

  23. Format settings, GOP : M=3, N=48

  24. Codec ID : V_MPEG4/ISO/AVC

  25. Duration : 1 h 45 min

  26. Bit rate mode : Variable

  27. Bit rate : 4 003 kb/s

  28. Maximum bit rate : 6 000 kb/s

  29. Width : 1 920 pixels

  30. Height : 1 080 pixels

  31. Display aspect ratio : 16:9

  32. Frame rate mode : Constant

  33. Frame rate : 24.000 FPS

  34. Color space : YUV

  35. Chroma subsampling : 4:2:0

  36. Bit depth : 8 bits

  37. Scan type : Progressive

  38. Bits/(Pixel*Frame) : 0.080

  39. Stream size : 2.95 GiB (97%)

  40. Default : Yes

  41. Forced : No

  42. Audio

  43. ID : 2

  44. Format : AAC LC

  45. Format/Info : Advanced Audio Codec Low Complexity

  46. Codec ID : A_AAC-2

  47. Duration : 1 h 45 min

  48. Bit rate : 129 kb/s

  49. Channel(s) : 2 channels

  50. Channel layout : L R

  51. Sampling rate : 48.0 kHz

  52. Frame rate : 46.875 FPS (1024 SPF)

  53. Compression mode : Lossy

  54. Stream size : 97.0 MiB (3%)

  55. Title : Japanese

  56. Language : Japanese

  57. Default : No

  58. Forced : No

  59. Text #1

  60. ID : 3

  61. Format : UTF-8

  62. Codec ID : S_TEXT/UTF8

  63. Codec ID/Info : UTF-8 Plain Text

  64. Duration : 29 min 3 s

  65. Bit rate : 35 b/s

  66. Count of elements : 345

  67. Stream size : 7.61 KiB (0%)

  68. Title : Simplified Chinese

  69. Language : Chinese

  70. Default : No

  71. Forced : No

  72. Text #2

  73. ID : 4

  74. Format : UTF-8

  75. Codec ID : S_TEXT/UTF8

  76. Codec ID/Info : UTF-8 Plain Text

  77. Duration : 29 min 3 s

  78. Bit rate : 35 b/s

  79. Count of elements : 345

  80. Stream size : 7.61 KiB (0%)

  81. Title : Traditional Chinese

  82. Language : Chinese

  83. Default : Yes

  84. Forced : No


复制代码



文件下载


除非特别注明,本文『透视画男孩与全景画女孩[简体字幕].Georama.Boy.Panorama.Girl.2020.1080p.CatchPlay.WEB-DL.AAC2.0.H264-CTRLWEB 3.05GB』来源于互联网机器人自动抓取,非本站原创。 浮游电影网不对本文拥有版权,如有侵犯,请联系邮箱:fuyouu#yandex.com[#换成@]投诉。我们会在15个工作日内删除。 但烦请转载时请标明出处:“本文转载于『浮游电影网』,原文地址:https://www.fuyouu.com/21405.html

评论吧骚年!

发表你的见解   

昵称*

E-mail*(建议输入,以便收到博主回复的提示邮件)

验证码*

您可以使用eMule或eMule Mod(Windows)、aMule(Win、Linux、Mac)等软件下载eD2k链接。。
eMule收藏集(.emulecollection)文件是您选中的所有链接的列表文件。eMule可以直接下载它们。
按住SHIFT键选择可以选中多个选择框。
可用文件名和大小选择器来选择文件。
文件名选择器帮您根据文件名称或后缀来选择文件。不分大小写。
符号使用:
和:空格( )、+
不包含:-
或:|
转义:一对英文引号("");
匹配开头:^
匹配结尾:$
例如:
选中所有名称中包含有“eMule”或“0.49c”字眼,但不包含有“exe”字眼的:emule|0.49c -exe
选中所有名称的开头是“eMule”,结尾是“0.49c”的:^emule 0.49c$
选中所有名称中带有“eMule 0.49c”的(必须是“eMule 0.49c”,中间没有别的字符,不能是“eMule fake 0.49c”),需要转义:"emule 0.49c"
大小选择器帮您根据文件大小选择文件。