当前位置: 首页 >> 海外电影 >> 再生缘[简繁英字幕].Om.Shanti.Om.2007.BluRay.1080p.TrueHD.5.1.x265.10bit-ALT 14.82GB >> 正文

再生缘[简繁英字幕].Om.Shanti.Om.2007.BluRay.1080p.TrueHD.5.1.x265.10bit-ALT 14.82GB

2022年04月16日 00:06:22     电影发布:来源于网络     电影分类:海外电影     评论(0)    

再生缘[简繁英字幕].Om.Shanti.Om.2007.BluRay.1080p.TrueHD.5.1.x265.10bit ALT 14.82GB  海外电影  第1张

◎译 名 再生缘

◎片 名 Om Shanti Om

◎年 代 2007

◎产 地 印度

◎类 别 剧情 / 喜剧 / 动作

◎语 言 印地语 / 乌尔都语

◎上映日期 2007-11-07

◎IMDb链接 https://www.imdb.com/title/tt1024943/

◎豆瓣评分 7.8/10 (2765人评价)

◎豆瓣链接 https://movie.douban.com/subject/2125096/

◎片 长 162 分钟

◎导 演 法拉·可汗 Farah Khan (id:1014285)

◎编 剧 法拉·可汗 Farah Khan (id:1014285)

马尤尔·普里 Mayur Puri (id:1346470)

◎演 员 沙鲁克·汗 Shah Rukh Khan (id:1041117)

阿俊·拉姆鲍 Arjun Rampal (id:1036579)

凯伦·凯尔 Kiron Kher (id:1102728)

施瑞亚斯·塔尔帕德 Shreyas Talpade (id:1005282)

迪皮卡·帕度柯妮 Deepika Padukone (id:1014002)

Bindu Bindu (id:1061479)

Javed Sheikh Javed Sheikh (id:1144069)

萨蒂什·沙阿 Satish Shah (id:1146527)

阿姆瑞塔·阿若拉 Amrita Arora (id:1005171)

玛拉伊卡·阿罗拉 Malaika Arora (id:1050349)

莎巴娜·阿兹米 Shabana Azmi (id:1050040)

阿布舍克·巴强 Abhishek Bachchan (id:1004686)

阿米达普·巴强 Amitabh Bachchan (id:1027845)

薇迪亚·巴兰 Vidya Balan (id:1183702)

碧帕莎·芭素 Bipasha Basu (id:1014021)

米特胡恩·查克拉博蒂 Mithun Chakraborty (id:1054259)

玖熹·查瓦拉 Juhi Chawla (id:1041257)

佩丽冉卡·曹帕拉 Priyanka Chopra (id:1010638)

雅什·乔普拉 Yash Chopra (id:1276716)

萨布·西里尔 Sabu Cyril (id:1281660)

维沙尔·达拉尼 Vishal Dadlani (id:1010068)

波比·戴尔 Bobby Deol (id:1004952)

瑞提希·德希穆克 Riteish Deshmukh (id:1208519)

达尔门德拉 Dharmendra (id:1053592)

桑杰·达特 Sanjay Dutt (id:1025276)

苏尼尔·达特 Sunil Dutt (id:1019211)

拉腊·杜塔 Lara Dutta (id:1000338)

萨伯哈什·哥亥 Subhash Ghai (id:1005253)

哥文达 Govinda (id:1036609)

Haresh Hingorani Haresh Hingorani (id:1307849)

吉滕德拉 Jeetendra (id:1002844)

卡伦·乔哈尔 Karan Johar (id:1018224)

卡卓儿 Kajol (id:1022723)

Nakul Kamte Nakul Kamte (id:1288071)

卡瑞诗玛·卡普尔 Karisma Kapoor (id:1010677)

里希·卡普尔 Rishi Kapoor (id:1050067)

桑杰·卡普尔 Sanjay Kapoor (id:1028152)

杜沙·卡普尔 Tusshar Kapoor (id:1161489)

阿巴斯·汗 Arbaaz Khan (id:1023171)

法拉·可汗 Farah Khan (id:1014285)

Feroz Khan Feroz Khan (id:1028038)

赛义夫·阿里·汗 Saif Ali Khan (id:1022767)

萨尔曼·汗 Salman Khan (id:1017831)

扎耶德.汗 Zayed Khan (id:1195446)

拉杰·肯南 Rajesh Khanna (id:1016697)

阿克谢·库玛尔 Akshay Kumar (id:1049615)

Bappi Lahiri Bappi Lahiri (id:1036334)

乌尔米拉.马东卡 Urmila Matondkar (id:1054910)

迪雅·莫扎 Diya Mirza (id:1036775)

Koena Mitra Koena Mitra (id:1177812)

迪诺·摩瑞亚 Dino Morea (id:1127518)

拉妮·玛克赫吉 Rani Mukherjee (id:1000191)

Chunky Pandey Chunky Pandey (id:1129802)

阿米莎·帕泰拉 Ameesha Patel (id:1136144)

马尤尔·普里 Mayur Puri (id:1346470)

瑞哈 Rekha (id:1027927)

赫里尼克·罗斯汉 Hrithik Roshan (id:1017834)

拉克什·罗斯汉 Rakesh Roshan (id:1050261)

希尔帕·谢蒂 Shilpa Shetty (id:1019022)

桑尼尔·谢迪 Sunil Shetty (id:1025321)

阿弗塔布·施夫达撒尼 Aftab Shivdasani (id:1059749)

塔布 Tabu (id:1040796)

纪元 Yuan Ji (id:1423400)

卡琳娜·卡普尔 Kareena Kapoor (id:1049635)

普丽缇·泽塔 Preity Zinta (id:1004729)

沙鲁克·汗 Shah Rukh Khan (id:1041117)

高瑞·汗 Gauri Khan (id:1027612)

谢卡尔·拉维加尼 Shekhar Ravjiani (id:1037799)

Pyarelal Ramprasad Sharma Pyarelal Ramprasad Sharma (id:1295004)

维沙尔·达拉尼 Vishal Dadlani (id:1010068)

萨布·西里尔 Sabu Cyril (id:1281660)

卡伦·乔哈尔 Karan Johar (id:1018224)

马尼什·马尔霍特拉 Manish Malhotra (id:1290810)

Angelo Sahin Angelo Sahin (id:1137916)

Pooja Desai (id:1238866)

Arjun Mitra Arjun Mitra (id:1307852)

Keitan Yadav Keitan Yadav (id:1307854)

Haresh Hingorani Haresh Hingorani (id:1307849)

◎简 介

故事发生在70年代的宝莱坞,奥姆(沙鲁克·罕 Shahrukh Khan 饰)是一位大红大紫的演员,一次拍戏中,向来天不怕地不怕的他发现自己居然害怕火。在熊熊燃烧的火焰之前,奥姆想起了自己前世的记忆。

原来,奥姆的前世是一位名不见经传的小演员,他深深的迷恋着当时的当红女星沙堤(迪皮卡·帕杜科内 Deepika Padukone 饰),一次意外中,他从烈火中救出了身陷险境的沙堤。之后沙堤与一名编剧相恋,没想到编剧并非善类,他不仅残酷的玩弄了沙堤,还导致了奥姆前世的死亡。回忆起了这一切的奥姆决定寻找沙堤今生的转世,茫茫人海之中,奥姆的愿望能够成真吗?他和沙堤之间又能否再续前缘呢?

◎获奖情况 (共2项)

第2届亚洲电影大奖 (2008)

最佳女主角(提名)

└──迪皮卡·帕度柯妮 (id:1014002)

最佳原创音乐

  1. ##### MediaInfo ######

  2. General

  3. Unique ID : 153880868784635855588153066682927173857 (0x73C46097215B298C14A78EFB2BE250E1)

  4. Complete name : Om.Shanti.Om.2007.BluRay.1080p.TrueHD.5.1.x265.10bit-BeiTai.mkv

  5. Format : Matroska

  6. Format version : Version 4

  7. File size : 14.8 GiB

  8. Duration : 2 h 49 min

  9. Overall bit rate mode : Variable

  10. Overall bit rate : 12.5 Mb/s

  11. Encoded date : UTC 2022-04-15 01:45:09

  12. Writing application : mkvmerge v49.0.0 ('Sick Of Losing Soulmates') 64-bit

  13. Writing library : libebml v1.4.0 + libmatroska v1.6.1

  14. Video

  15. ID : 1

  16. Format : HEVC

  17. Format/Info : High Efficiency Video Coding

  18. Format profile : Main [email protected]@High

  19. Codec ID : V_MPEGH/ISO/HEVC

  20. Duration : 2 h 49 min

  21. Bit rate : 8 176 kb/s

  22. Width : 1 920 pixels

  23. Height : 818 pixels

  24. Display aspect ratio : 2.35:1

  25. Frame rate mode : Constant

  26. Frame rate : 23.976 (24000/1001/53354) FPS

  27. Color space : YUV

  28. Chroma subsampling : 4:2:0

  29. Bit depth : 10 bits

  30. Bits/(Pixel*Frame) : 0.217

  31. Stream size : 9.65 GiB (65%)

  32. Title : HEVC, [email protected]@High, 24/1.001 fps @ 8176 kbps

  33. Writing library : x265 3.5+36-1f2c8da77:[Windows][GCC 11.2.0][64 bit] 10bit

  34. Encoding settings : cpuid=533541111039 / frame-threads=4 / numa-pools=16 / wpp / pmode / pme / no-psnr / no-ssim / log-level=2 / input-csp=1 / input-res=1920x818 / interlace=0 / total-frames=243193 / level-idc=51 / high-tier=1 / uhd-bd=0 / ref=5 / no-allow-non-conformance / no-repeat-headers / annexb / no-aud / no-eob / no-eos / no-hrd / info / hash=0 / no-temporal-layers / open-gop / min-keyint=24 / keyint=240 / gop-lookahead=0 / bframes=6 / b-adapt=2 / b-pyramid / bframe-bias=0 / rc-lookahead=40 / lookahead-slices=0 / NTMzNTQ=uuDQuD2mJt9fsCf / scenecut=40 / no-hist-scenecut / radl=0 / no-splice / no-intra-refresh / ctu=32 / min-cu-size=8 / no-rect / no-amp / max-tu-size=32 / tu-inter-depth=3 / tu-intra-depth=3 / limit-tu=4 / rdoq-level=2 / dynamic-rd=0.00 / no-ssim-rd / signhide / no-tskip / nr-intra=0 / nr-inter=0 / no-constrained-intra / no-strong-intra-smoothing / max-merge=4 / limit-refs=1 / limit-modes / me=3 / subme=4 / merange=25 / temporal-mvp / no-frame-dup / no-hme / weightp / weightb / no-analyze-src-pics / deblock=-3:-3 / no-sao / no-sao-non-deblock / rd=6 / selective-sao=0 / no-early-skip / rskip / no-fast-intra / no-tskip-fast / no-cu-lossless / b-intra / no-splitrd-skip / rdpenalty=0 / psy-rd=2.00 / psy-rdoq=1.00 / no-rd-refine / no-lossless / cbqpoffs=0 / crqpoffs=0 / rc=crf / crf=18.5 / qcomp=0.65 / qpstep=4 / stats-write=0 / stats-read=0 / vbv-maxrate=80000 / vbv-bufsize=80000 / vbv-init=0.9 / min-vbv-fullness=50.0 / max-vbv-fullness=80.0 / crf-max=0.0 / crf-min=0.0 / ipratio=1.40 / pbratio=1.30 / aq-mode=2 / aq-strength=0.85 / cutree / zone-count=0 / no-strict-cbr / qg-size=32 / no-rc-grain / qpmax=69 / qpmin=0 / no-const-vbv / sar=1 / overscan=0 / videoformat=5 / range=0 / colorprim=1 / transfer=1 / colormatrix=1 / chromaloc=0 / display-window=0 / cll=0,0 / min-luma=0 / max-luma=1023 / log2-max-poc-lsb=8 / vui-timing-info / vui-hrd-info / slices=1 / no-opt-qp-pps / no-opt-ref-list-length-pps / no-multi-pass-opt-rps / scenecut-bias=0.05 / hist-threshold=0.03 / no-opt-cu-delta-qp / no-aq-motion / no-hdr10 / no-hdr10-opt / no-dhdr10-opt / no-idr-recovery-sei / analysis-reuse-level=0 / analysis-save-reuse-level=0 / analysis-load-reuse-level=0 / scale-factor=0 / refine-intra=0 / refine-inter=0 / refine-mv=1 / refine-ctu-distortion=0 / no-limit-sao / ctu-info=0 / no-lowpass-dct / refine-analysis-type=0 / copy-pic=1 / max-ausize-factor=1.0 / no-dynamic-refine / no-single-sei / no-hevc-aq / no-svt / no-field / qp-adaptation-range=1.00 / scenecut-aware-qp=0conformance-window-offsets / right=0 / bottom=0 / NTMzNTQ= / decoder-max-rate=0 / no-vbv-live-multi-pass

  35. Language : English

  36. Default : Yes

  37. Forced : No

  38. Color range : Limited

  39. Color primaries : BT.709

  40. Transfer characteristics : BT.709

  41. Matrix coefficients : BT.709

  42. Audio #1

  43. ID : 2

  44. Format : MLP FBA

  45. Format/Info : Meridian Lossless Packing FBA

  46. Commercial name : Dolby TrueHD

  47. Codec ID : A_TRUEHD

  48. Duration : 2 h 49 min

  49. Bit rate mode : Variable

  50. Bit rate : 3 754 kb/s

  51. Maximum bit rate : 5 643 kb/s

  52. Channel(s) : 6 channels

  53. Channel layout : L R C LFE Ls Rs

  54. Sampling rate : 48.0 kHz

  55. Frame rate : 1 200.000 FPS (40 SPF)

  56. Compression mode : Lossless

  57. Stream size : 4.43 GiB (30%)

  58. Title : Hindi Dolby TrueHD 5.1 @ 3754 kbps

  59. Language : Hindi

  60. Default : Yes

  61. Forced : No

  62. Audio #2

  63. ID : 3

  64. Format : AC-3

  65. Format/Info : Audio Coding 3

  66. Commercial name : Dolby Digital

  67. Codec ID : A_AC3

  68. Duration : 2 h 49 min

  69. Bit rate mode : Constant

  70. Bit rate : 448 kb/s

  71. Channel(s) : 6 channels

  72. Channel layout : L R C LFE Ls Rs

  73. Sampling rate : 48.0 kHz

  74. Frame rate : 31.250 FPS (1536 SPF)

  75. Compression mode : Lossy

  76. Stream size : 542 MiB (4%)

  77. Title : Hindi Dolby Digital Audio 5.1 @ 640 kbps

  78. Language : Hindi

  79. Service kind : Complete Main

  80. Default : No

  81. Forced : No

  82. Text #1

  83. ID : 4

  84. Format : PGS

  85. Codec ID : S_HDMV/PGS

  86. Codec ID/Info : Picture based subtitle format used on BDs/HD-DVDs

  87. Duration : 2 h 47 min

  88. Bit rate : 45.1 kb/s

  89. Count of elements : 3946

  90. Stream size : 54.1 MiB (0%)

  91. Title : Eng/SUP

  92. Language : English

  93. Default : No

  94. Forced : No

  95. Text #2

  96. ID : 5

  97. Format : PGS

  98. Codec ID : S_HDMV/PGS

  99. Codec ID/Info : Picture based subtitle format used on BDs/HD-DVDs

  100. Duration : 2 h 47 min

  101. Bit rate : 28.5 kb/s

  102. Count of elements : 4758

  103. Stream size : 34.1 MiB (0%)

  104. Title : Chs/SUP 简体

  105. Language : Chinese

  106. Default : Yes

  107. Forced : No

  108. Text #3

  109. ID : 6

  110. Format : PGS

  111. Codec ID : S_HDMV/PGS

  112. Codec ID/Info : Picture based subtitle format used on BDs/HD-DVDs

  113. Duration : 2 h 41 min

  114. Bit rate : 29.8 kb/s

  115. Count of elements : 4748

  116. Stream size : 34.5 MiB (0%)

  117. Title : Cht/SUP 繁体

  118. Language : Chinese

  119. Default : No

  120. Forced : No

  121. Menu

  122. 00:00:00.000 : en:第 01 章

  123. 00:01:24.042 : en:第 02 章

  124. 00:04:14.379 : en:第 03 章

  125. 00:09:48.046 : en:第 04 章

  126. 00:11:54.756 : en:第 05 章

  127. 00:13:23.553 : en:第 06 章

  128. 00:16:52.887 : en:第 07 章

  129. 00:28:20.324 : en:第 08 章

  130. 00:38:24.469 : en:第 09 章

  131. 00:45:54.293 : en:第 10 章

  132. 00:53:05.808 : en:第 11 章

  133. 00:56:16.498 : en:第 12 章

  134. 01:00:39.135 : en:第 13 章

  135. 01:11:55.937 : en:第 14 章

  136. 01:17:07.540 : en:第 15 章

  137. 01:25:47.351 : en:第 16 章

  138. 01:32:11.109 : en:第 17 章

  139. 01:40:45.706 : en:第 18 章

  140. 01:58:46.286 : en:第 19 章

  141. 02:00:39.983 : en:第 20 章

  142. 02:13:16.780 : en:第 21 章

  143. 02:16:56.083 : en:第 22 章

  144. 02:27:25.420 : en:第 23 章

  145. 02:34:46.360 : en:第 24 章

  146. 02:43:01.063 : en:第 25 章


复制代码



文件下载


除非特别注明,本文『再生缘[简繁英字幕].Om.Shanti.Om.2007.BluRay.1080p.TrueHD.5.1.x265.10bit-ALT 14.82GB』来源于互联网机器人自动抓取,非本站原创。 浮游电影网不对本文拥有版权,如有侵犯,请联系邮箱:fuyouu#yandex.com[#换成@]投诉。我们会在15个工作日内删除。 但烦请转载时请标明出处:“本文转载于『浮游电影网』,原文地址:https://www.fuyouu.com/21387.html

评论吧骚年!

发表你的见解   

昵称*

E-mail*(建议输入,以便收到博主回复的提示邮件)

验证码*

您可以使用eMule或eMule Mod(Windows)、aMule(Win、Linux、Mac)等软件下载eD2k链接。。
eMule收藏集(.emulecollection)文件是您选中的所有链接的列表文件。eMule可以直接下载它们。
按住SHIFT键选择可以选中多个选择框。
可用文件名和大小选择器来选择文件。
文件名选择器帮您根据文件名称或后缀来选择文件。不分大小写。
符号使用:
和:空格( )、+
不包含:-
或:|
转义:一对英文引号("");
匹配开头:^
匹配结尾:$
例如:
选中所有名称中包含有“eMule”或“0.49c”字眼,但不包含有“exe”字眼的:emule|0.49c -exe
选中所有名称的开头是“eMule”,结尾是“0.49c”的:^emule 0.49c$
选中所有名称中带有“eMule 0.49c”的(必须是“eMule 0.49c”,中间没有别的字符,不能是“eMule fake 0.49c”),需要转义:"emule 0.49c"
大小选择器帮您根据文件大小选择文件。