当前位置: 首页 >> 港台电影 >> 修行[国语音轨/简体字幕].Increasing.Echo.2021.1080p.CatchPlay.WEB-DL.AAC2.0.H264-CTRLWEB 2.61GB >> 正文

修行[国语音轨/简体字幕].Increasing.Echo.2021.1080p.CatchPlay.WEB-DL.AAC2.0.H264-CTRLWEB 2.61GB

2022年04月16日 00:05:15     电影发布:来源于网络     电影分类:港台电影     评论(0)    

修行[国语音轨/简体字幕].Increasing.Echo.2021.1080p.CatchPlay.WEB DL.AAC2.0.H264 CTRLWEB 2.61GB  港台电影  第1张

◎译 名 修行 / Increasing Echo

◎年 代 2021

◎产 地 中国台湾

◎类 别 剧情 / 家庭

◎语 言 汉语普通话 / 闽南语

◎上映日期 2022-01-14(中国台湾) / 2021-10-08(釜山电影节)

◎IMDb链接 https://www.imdb.com/title/tt15488160/

◎豆瓣评分 5.9/10 (184人评价)

◎豆瓣链接 https://movie.douban.com/subject/35597707/

◎片 长 85分钟

◎导 演 钱翔 Hsiang Chienn (id:1331621)

◎编 剧 王定国 Dingguo Wang (id:1367685)

◎演 员 陈湘琪 Shiang-chyi Chen (id:1280579)

陈以文 Yiwen Chen (id:1280584)

黄柔闽 Rouming Huang (id:1466236)

◎简 介

如果中年人生是一场修行,该期待的是顿悟,还是在矇眼的黑暗中放慢呼吸?模范主妇严太太在买菜煮饭、带狗看医生的琐碎日常中,持续过着灵修人生;上班无趣,下班无处可去的严先生,也日复一日地过着“修行”般敬而远之的婚姻生活。直到严太太意外接到一通电话,得知多年前丈夫短暂出轨的对象住进了疗养院的消息,原本凝固的日子便开始掀起波澜??

《修行》改编自作家王定国的短篇小说《妖精》。导演钱翔再次携手金马影后陈湘琪,搭配金马影帝陈以文饰演一对感情零温度的夫妻,全片探讨中年婚姻危机与难解的人生课题,以细腻而诗意的影像语言,对情感与人性层层剖析。如果无爱的婚姻是一场修行,该盼望的是回应,还是在无声的日子里得过且过?

  1. ##### MediaInfo ######

  2. General

  3. Unique ID : 180892525482371920014735973208976449755 (0x8816A216655492A19D3E97318EB6E0DB)

  4. Complete name : [email protected]EB.mkv

  5. Format : Matroska

  6. Format version : Version 4

  7. File size : 2.61 GiB

  8. Duration : 1 h 24 min

  9. Overall bit rate mode : Variable

  10. Overall bit rate : 4 397 kb/s

  11. Movie name : [email protected]EB

  12. Encoded date : UTC 2022-04-13 10:30:10

  13. Writing application : mkvmerge v44.0.0 ('Domino') 64-bit

  14. Writing library : libebml v1.3.10 + libmatroska v1.5.2

  15. Video

  16. ID : 1

  17. Format : AVC

  18. Format/Info : Advanced Video Codec

  19. Format profile : [email protected]

  20. Format settings : CABAC / 4 Ref Frames

  21. Format settings, CABAC : Yes

  22. Format settings, Reference frames : 4 frames

  23. Format settings, GOP : M=3, N=48

  24. Codec ID : V_MPEG4/ISO/AVC

  25. Duration : 1 h 24 min

  26. Bit rate mode : Variable

  27. Bit rate : 4 008 kb/s

  28. Maximum bit rate : 6 000 kb/s

  29. Width : 1 920 pixels

  30. Height : 1 080 pixels

  31. Display aspect ratio : 16:9

  32. Frame rate mode : Constant

  33. Frame rate : 24.000 FPS

  34. Color space : YUV

  35. Chroma subsampling : 4:2:0

  36. Bit depth : 8 bits

  37. Scan type : Progressive

  38. Bits/(Pixel*Frame) : 0.081

  39. Stream size : 2.38 GiB (91%)

  40. Default : Yes

  41. Forced : No

  42. Audio #1

  43. ID : 2

  44. Format : AAC LC

  45. Format/Info : Advanced Audio Codec Low Complexity

  46. Codec ID : A_AAC-2

  47. Duration : 1 h 24 min

  48. Bit rate : 128 kb/s

  49. Channel(s) : 2 channels

  50. Channel layout : L R

  51. Sampling rate : 48.0 kHz

  52. Frame rate : 46.875 FPS (1024 SPF)

  53. Compression mode : Lossy

  54. Stream size : 77.8 MiB (3%)

  55. Title : Mandarin

  56. Language : Chinese

  57. Default : Yes

  58. Forced : No

  59. Audio #2

  60. ID : 3

  61. Format : AAC LC

  62. Format/Info : Advanced Audio Codec Low Complexity

  63. Codec ID : A_AAC-2

  64. Duration : 1 h 24 min

  65. Bit rate : 128 kb/s

  66. Channel(s) : 2 channels

  67. Channel layout : L R

  68. Sampling rate : 48.0 kHz

  69. Frame rate : 46.875 FPS (1024 SPF)

  70. Compression mode : Lossy

  71. Stream size : 77.8 MiB (3%)

  72. Title : Traditional Chinese

  73. Language : Chinese

  74. Default : No

  75. Forced : No

  76. Audio #3

  77. ID : 4

  78. Format : AAC LC

  79. Format/Info : Advanced Audio Codec Low Complexity

  80. Codec ID : A_AAC-2

  81. Duration : 1 h 24 min

  82. Bit rate : 128 kb/s

  83. Channel(s) : 2 channels

  84. Channel layout : L R

  85. Sampling rate : 48.0 kHz

  86. Frame rate : 46.875 FPS (1024 SPF)

  87. Compression mode : Lossy

  88. Stream size : 77.8 MiB (3%)

  89. Title : Mandarin Chinese

  90. Language : Chinese

  91. Default : No

  92. Forced : No

  93. Text #1

  94. ID : 5

  95. Format : UTF-8

  96. Codec ID : S_TEXT/UTF8

  97. Codec ID/Info : UTF-8 Plain Text

  98. Duration : 1 h 17 min

  99. Bit rate : 7 b/s

  100. Count of elements : 257

  101. Stream size : 4.25 KiB (0%)

  102. Title : Simplified Chinese

  103. Language : Chinese

  104. Default : No

  105. Forced : No

  106. Text #2

  107. ID : 6

  108. Format : UTF-8

  109. Codec ID : S_TEXT/UTF8

  110. Codec ID/Info : UTF-8 Plain Text

  111. Duration : 1 h 17 min

  112. Bit rate : 7 b/s

  113. Count of elements : 257

  114. Stream size : 4.25 KiB (0%)

  115. Title : Traditional Chinese

  116. Language : Chinese

  117. Default : Yes

  118. Forced : No


复制代码



文件下载


除非特别注明,本文『修行[国语音轨/简体字幕].Increasing.Echo.2021.1080p.CatchPlay.WEB-DL.AAC2.0.H264-CTRLWEB 2.61GB』来源于互联网机器人自动抓取,非本站原创。 浮游电影网不对本文拥有版权,如有侵犯,请联系邮箱:fuyouu#yandex.com[#换成@]投诉。我们会在15个工作日内删除。 但烦请转载时请标明出处:“本文转载于『浮游电影网』,原文地址:https://www.fuyouu.com/21386.html

评论吧骚年!

发表你的见解   

昵称*

E-mail*(建议输入,以便收到博主回复的提示邮件)

验证码*

您可以使用eMule或eMule Mod(Windows)、aMule(Win、Linux、Mac)等软件下载eD2k链接。。
eMule收藏集(.emulecollection)文件是您选中的所有链接的列表文件。eMule可以直接下载它们。
按住SHIFT键选择可以选中多个选择框。
可用文件名和大小选择器来选择文件。
文件名选择器帮您根据文件名称或后缀来选择文件。不分大小写。
符号使用:
和:空格( )、+
不包含:-
或:|
转义:一对英文引号("");
匹配开头:^
匹配结尾:$
例如:
选中所有名称中包含有“eMule”或“0.49c”字眼,但不包含有“exe”字眼的:emule|0.49c -exe
选中所有名称的开头是“eMule”,结尾是“0.49c”的:^emule 0.49c$
选中所有名称中带有“eMule 0.49c”的(必须是“eMule 0.49c”,中间没有别的字符,不能是“eMule fake 0.49c”),需要转义:"emule 0.49c"
大小选择器帮您根据文件大小选择文件。