当前位置: 首页 >> 日韩电影 >> 鸠的击退法[简体字幕].Every.Trick.in.the.Book.2021.1080p.CatchPlay.WEB-DL.AAC2.0.H264-CTRLWEB 3.41GB >> 正文

鸠的击退法[简体字幕].Every.Trick.in.the.Book.2021.1080p.CatchPlay.WEB-DL.AAC2.0.H264-CTRLWEB 3.41GB

2022年04月16日 00:02:31     电影发布:来源于网络     电影分类:日韩电影     评论(0)    

鸠的击退法[简体字幕].Every.Trick.in.the.Book.2021.1080p.CatchPlay.WEB DL.AAC2.0.H264 CTRLWEB 3.41GB  日韩电影  第1张

◎译 名 鸠的击退法 / Every Trick in the Book

◎片 名 鳩の撃退法

◎年 代 2021

◎产 地 日本

◎类 别 剧情

◎语 言 日语

◎上映日期 2021-08-27(日本)

◎IMDb链接 https://www.imdb.com/title/tt14153324/

◎豆瓣评分 6.1/10 (1034人评价)

◎豆瓣链接 https://movie.douban.com/subject/35374186/

◎片 长 119分钟

◎导 演 高畑秀太 Hideta Takahata (id:1376706)

◎编 剧 藤井清美 Kiyomi Fujii (id:1357394)

高畑秀太 Hideta Takahata (id:1376706)

◎演 员 藤原龙也 Tatsuya Fujiwara (id:1045190)

土屋太凤 Tao Tsuchiya (id:1315335)

风间俊介 Shunsuke Kazama (id:1020600)

西野七濑 Nanase Nishino (id:1337813)

丰川悦司 Etsushi Toyokawa (id:1032989)

坂井真纪 Maki Sakai (id:1046761)

滨田岳 Gaku Hamada (id:1011107)

中川雅也 Lily Franky (id:1042693)

佐津川爱美 Aimi Satsukawa (id:1312770)

樱井由纪 Yuki Sakurai (id:1352403)

柿泽勇人 Hayato Kakizawa (id:1322020)

骏河太郎 Tar? Suruga (id:1314872)

滨野谦太 Kenta Hamano (id:1316095)

岩松了 Ry? Iwamatsu (id:1275827)

村上淳 Jun Murakami (id:1023769)

森下能幸 Yoshiyuki Morishita (id:1038001)

森宽和 Kanna Mori (id:1313189)

矢野圣人 Masato Yano (id:1323337)

佐藤玲 Ryo Sato (id:1353175)

伊岛空 Ku Ijima (id:1434771)

◎简 介

该片改编自佐藤正午畅销小说《鸠的击退法》,原著被誉为佐藤正午最佳作品,获得众多文学奖项。电影讲述津田在酒吧里让自己的编辑鸟饲(土屋太凤 饰)阅读他正在创作中的新小说,但鸟饲读起来越来越不像小说中的故事,她开始验证小说是否真的是虚构,惊愕的真相渐渐展开。

  1. ##### MediaInfo ######

  2. General

  3. Unique ID : 263961432745450263475066505836026150459 (0xC6951F6C76D45DD72032DC8E12C03E3B)

  4. Complete name : Ever[email protected]CHDWEB.mkv

  5. Format : Matroska

  6. Format version : Version 4

  7. File size : 3.41 GiB

  8. Duration : 1 h 58 min

  9. Overall bit rate mode : Variable

  10. Overall bit rate : 4 124 kb/s

  11. Movie name : Ever[email protected]CHDWEB

  12. Encoded date : UTC 2022-04-13 10:43:53

  13. Writing application : mkvmerge v44.0.0 ('Domino') 64-bit

  14. Writing library : libebml v1.3.10 + libmatroska v1.5.2

  15. Video

  16. ID : 1

  17. Format : AVC

  18. Format/Info : Advanced Video Codec

  19. Format profile : [email protected]

  20. Format settings : CABAC / 4 Ref Frames

  21. Format settings, CABAC : Yes

  22. Format settings, Reference frames : 4 frames

  23. Format settings, GOP : M=3, N=48

  24. Codec ID : V_MPEG4/ISO/AVC

  25. Duration : 1 h 58 min

  26. Bit rate mode : Variable

  27. Bit rate : 3 993 kb/s

  28. Maximum bit rate : 6 000 kb/s

  29. Width : 1 920 pixels

  30. Height : 1 080 pixels

  31. Display aspect ratio : 16:9

  32. Frame rate mode : Constant

  33. Frame rate : 24.000 FPS

  34. Color space : YUV

  35. Chroma subsampling : 4:2:0

  36. Bit depth : 8 bits

  37. Scan type : Progressive

  38. Bits/(Pixel*Frame) : 0.080

  39. Stream size : 3.30 GiB (97%)

  40. Default : Yes

  41. Forced : No

  42. Audio

  43. ID : 2

  44. Format : AAC LC

  45. Format/Info : Advanced Audio Codec Low Complexity

  46. Codec ID : A_AAC-2

  47. Duration : 1 h 58 min

  48. Bit rate : 128 kb/s

  49. Channel(s) : 2 channels

  50. Channel layout : L R

  51. Sampling rate : 48.0 kHz

  52. Frame rate : 46.875 FPS (1024 SPF)

  53. Compression mode : Lossy

  54. Stream size : 109 MiB (3%)

  55. Title : Japanese

  56. Language : Japanese

  57. Default : No

  58. Forced : No

  59. Text #1

  60. ID : 3

  61. Format : UTF-8

  62. Codec ID : S_TEXT/UTF8

  63. Codec ID/Info : UTF-8 Plain Text

  64. Duration : 1 h 54 min

  65. Bit rate : 47 b/s

  66. Count of elements : 1543

  67. Stream size : 39.8 KiB (0%)

  68. Title : Simplified Chinese

  69. Language : Chinese

  70. Default : No

  71. Forced : No

  72. Text #2

  73. ID : 4

  74. Format : UTF-8

  75. Codec ID : S_TEXT/UTF8

  76. Codec ID/Info : UTF-8 Plain Text

  77. Duration : 1 h 54 min

  78. Bit rate : 47 b/s

  79. Count of elements : 1543

  80. Stream size : 39.8 KiB (0%)

  81. Title : Traditional Chinese

  82. Language : Chinese

  83. Default : Yes

  84. Forced : No


复制代码



文件下载


除非特别注明,本文『鸠的击退法[简体字幕].Every.Trick.in.the.Book.2021.1080p.CatchPlay.WEB-DL.AAC2.0.H264-CTRLWEB 3.41GB』来源于互联网机器人自动抓取,非本站原创。 浮游电影网不对本文拥有版权,如有侵犯,请联系邮箱:fuyouu#yandex.com[#换成@]投诉。我们会在15个工作日内删除。 但烦请转载时请标明出处:“本文转载于『浮游电影网』,原文地址:https://www.fuyouu.com/21384.html

评论吧骚年!

发表你的见解   

昵称*

E-mail*(建议输入,以便收到博主回复的提示邮件)

验证码*

您可以使用eMule或eMule Mod(Windows)、aMule(Win、Linux、Mac)等软件下载eD2k链接。。
eMule收藏集(.emulecollection)文件是您选中的所有链接的列表文件。eMule可以直接下载它们。
按住SHIFT键选择可以选中多个选择框。
可用文件名和大小选择器来选择文件。
文件名选择器帮您根据文件名称或后缀来选择文件。不分大小写。
符号使用:
和:空格( )、+
不包含:-
或:|
转义:一对英文引号("");
匹配开头:^
匹配结尾:$
例如:
选中所有名称中包含有“eMule”或“0.49c”字眼,但不包含有“exe”字眼的:emule|0.49c -exe
选中所有名称的开头是“eMule”,结尾是“0.49c”的:^emule 0.49c$
选中所有名称中带有“eMule 0.49c”的(必须是“eMule 0.49c”,中间没有别的字符,不能是“eMule fake 0.49c”),需要转义:"emule 0.49c"
大小选择器帮您根据文件大小选择文件。