当前位置: 首页 >> 欧美电影 >> 惊天魔盗团[共2部合集][简繁英字幕].Now.You.See.Me.1-2.2013-2016.BluRay.1080p.DTS-HD.MA.7.1.x265.10bit-ALT 24.67GB >> 正文

惊天魔盗团[共2部合集][简繁英字幕].Now.You.See.Me.1-2.2013-2016.BluRay.1080p.DTS-HD.MA.7.1.x265.10bit-ALT 24.67GB

2022年04月15日 14:04:24     电影发布:来源于网络     电影分类:欧美电影     评论(0)    

惊天魔盗团[共2部合集][简繁英字幕].Now.You.See.Me.1 2.2013 2016.BluRay.1080p.DTS HD.MA.7.1.x265.10bit ALT 24.67GB  欧美电影  第1张

◎译 名 惊天魔盗团 / 非常盗(港) / 出神入化(台) / 瞒天过海 / 看到我了吧

◎片 名 Now You See Me

◎年 代 2013

◎产 地 美国 / 法国

◎类 别 剧情 / 悬疑 / 犯罪

◎语 言 英语 / 法语

◎上映日期 2013-10-10(中国大陆) / 2013-05-21(纽约首映) / 2013-05-31(美国)

◎IMDb链接 https://www.imdb.com/title/tt1670345/

◎豆瓣评分 7.8/10 (497253人评价)

◎豆瓣链接 https://movie.douban.com/subject/6517421/

◎片 长 115分钟

◎导 演 路易斯·莱特里尔 Louis Leterrier (id:1018091)

◎编 剧 鲍兹·亚金 Boaz Yakin (id:1301377)

爱德华·里科 Edward Ricourt (id:1329448)

艾德·索罗门 Ed Solomon (id:1050173)

◎演 员 杰西·艾森伯格 Jesse Eisenberg (id:1027144)

艾拉·菲舍尔 Isla Fisher (id:1041001)

伍迪·哈里森 Woody Harrelson (id:1053560)

戴夫·弗兰科 Dave Franco (id:1017991)

马克·鲁弗洛 Mark Ruffalo (id:1040505)

梅拉尼·罗兰 Mélanie Laurent (id:1103688)

摩根·弗里曼 Morgan Freeman (id:1054534)

迈克尔·凯恩 Michael Caine (id:1054509)

迈克尔·凯利 Michael Kelly (id:1104615)

古斯塔沃·奥尔蒂斯 Gustavo I. Ortiz (id:1342710)

亨特·巴克 Hunter Burke (id:1344028)

乔·克里斯特 Joe Chrest (id:1338883)

萨曼莎·博利厄 Samantha Beaulieu (id:1348753)

斯科特·施尔斯通 Scott Shilstone (id:1172769)

安东尼·莫利纳利 Anthony Molinari (id:1045545)

格里夫·弗斯特 Griff Furst (id:1049947)

蒂莫西·辛里奇斯 Timothy Hinrichs (id:1432831)

柯南·奥布莱恩 Conan O'Brien (id:1000115)

凯特瑞娜·巴尔夫 Caitriona Balfe (id:1330689)

斯蒂芬妮·奥诺雷 Stephanie Honoré (id:1341190)

约翰·阿米乔 John L. Armijo (id:1341028)

亚当·沙皮罗 Adam Shapiro (id:1333947)

科曼 Common (id:1031947)

大卫·沃肖夫斯基 David Warshofsky (id:1032209)

何塞·加西亚 José Garcia (id:1032624)

提摩西·怀安特 Timothy Wyant (id:1341027)

阿黛拉高蒂尔 Adella Gauthier (id:1194041)

克里斯蒂安·加奇奥 Christian Gazio (id:1091607)

J·拉罗斯 J. LaRose (id:1289449)

道格拉斯·M·格里芬 Douglas M. Griffin (id:1093003)

劳拉·凯洛蒂 Laura Cayouette (id:1009471)

斯坦利·黄 Stanley Wong (id:1019816)

杰西卡·林赛 Jessica Lindsey (id:1333838)

布莱恩·泰勒 Brian Tyler (id:1276412)

拉瑞·方 Larry Fong (id:1334259)

埃里克·斯特拉特梅耶 Eric Stratemeier (id:1426157)

朱丽叶·里夫斯 Juliet Reeves (id:1191398)

琼·里格特 Joan Riegert (id:1359574)

迪莉娅·谢泼德 Delia Sheppard (id:1335909)

罗宾·李·佳诺德 Robin Lee Canode (id:1359572)

希瑟·艾希礼·博伊德 Heather Ashley Boyd (id:1359571)

香农·翰德 Shannon Hand (id:1359570)

贾斯婷·瓦希伯格 Justine Wachsberger (id:1359569)

李莉 Lil Rhee (id:1359573)

◎简 介

不夜赌城拉斯维加斯,豪华的表演大厅内正在进行一场前所未有的魔术表演,由丹尼尔·阿特拉斯(杰西·艾森伯格 Jesse Eisenberg 饰)、亨莉·里维斯(艾拉·菲舍尔 Isla Fisher 饰)、杰克·怀尔德(戴夫·弗兰科 Dave Franco 饰)和梅里特·麦克金尼(伍迪·哈里森 Woody Harrelson 饰)四位魔术师组成的“四骑士”配合天衣无缝,在众目睽睽之下偷来了某法国银行金库内350万欧元纸币,此举在现场至全世界引起轰动。FBI探员罗德(马克·鲁夫洛 Mark Ruffalo 饰)和国际刑警埃尔玛·德雷(梅拉尼·罗兰 Mélanie Laurent 饰)奉命对四人展开调查,却一无所获。无奈之下,他们只得求助于极具名气的揭露魔术师布莱德利(摩根·弗里曼 Morgan Freeman 饰)。

魔术师、盗贼、FBI探员,光影交错下最精...

◎获奖情况 (共2项)

第4届豆瓣电影鑫像奖 (2014)

豆渣单元 最渣影片(外语)(提名)

豆渣单元 最渣导演(外语)(提名)

└──路易斯·莱特里尔 (id:1018091)

  1. 合集文件列表:

  2. 1.Now.You.See.Me.2.2016.BluRay.1080p.TrueHD.Atmos.7.1.x265.10bit-ALT.mkv 11.48GB

  3. 2.Now.You.See.Me.2013.BluRay.1080p.2Audio.DTS-HD.MA.7.1.x265.10bit-ALT.mkv 13.18GB


复制代码

  1. ##### MediaInfo ######

  2. General

  3. Unique ID : 133274674874099677239687909552816605320 (0x6443C4CAA0A360A6009596ACCBB74888)

  4. Complete name : Now.You.See.Me.2.2016.BluRay.1080p.TrueHD.Atmos.7.1.x265.10bit-BeiTai.mkv

  5. Format : Matroska

  6. Format version : Version 4

  7. File size : 11.5 GiB

  8. Duration : 2 h 9 min

  9. Overall bit rate mode : Variable

  10. Overall bit rate : 12.7 Mb/s

  11. Encoded date : UTC 2020-01-25 05:45:51

  12. Writing application : mkvmerge v42.0.0 ('Overtime') 64-bit

  13. Writing library : libebml v1.3.10 + libmatroska v1.5.2

  14. Video

  15. ID : 1

  16. Format : HEVC

  17. Format/Info : High Efficiency Video Coding

  18. Format profile : Main [email protected]@High

  19. Codec ID : V_MPEGH/ISO/HEVC

  20. Duration : 2 h 9 min

  21. Bit rate : 7 184 kb/s

  22. Width : 1 920 pixels

  23. Height : 800 pixels

  24. Display aspect ratio : 2.40:1

  25. Frame rate mode : Constant

  26. Frame rate : 23.976 (24000/1001/53354) FPS

  27. Color space : YUV

  28. Chroma subsampling : 4:2:0

  29. Bit depth : 10 bits

  30. Bits/(Pixel*Frame) : 0.195

  31. Stream size : 6.48 GiB (56%)

  32. Title : HEVC, [email protected]@High, 24/1.001 fps @ 7184 kbps

  33. Writing library : x265 3.0_Au+4-dcbec33bfb0f:[Windows][GCC 8.2.1][64 bit] 10bit

  34. Encoding settings : cpuid=533541111039 / frame-threads=4 / numa-pools=16 / wpp / pmode / pme / no-psnr / no-ssim / log-level=2 / input-csp=1 / input-res=1920x800 / interlace=0 / total-frames=185818 / level-idc=51 / high-tier=1 / uhd-bd=0 / ref=5 / no-allow-non-conformance / no-repeat-headers / annexb / no-aud / no-hrd / info / hash=0 / no-temporal-layers / open-gop / min-keyint=24 / keyint=240 / gop-lookahead=0 / bframes=6 / b-adapt=2 / b-pyramid / bframe-bias=0 / rc-lookahead=40 / lookahead-slices=0 / NTMzNTQ=uuDQuD2mJt9fsCf / scenecut=40 / radl=0 / no-splice / no-intra-refresh / ctu=32 / min-cu-size=8 / no-rect / no-amp / max-tu-size=32 / tu-inter-depth=3 / tu-intra-depth=3 / limit-tu=4 / rdoq-level=2 / dynamic-rd=0.00 / no-ssim-rd / signhide / no-tskip / nr-intra=0 / nr-inter=0 / no-constrained-intra / no-strong-intra-smoothing / max-merge=4 / limit-refs=1 / limit-modes / me=3 / subme=4 / merange=25 / temporal-mvp / weightp / weightb / no-analyze-src-pics / deblock=-3:-3 / no-sao / no-sao-non-deblock / rd=6 / no-early-skip / rskip / no-fast-intra / no-tskip-fast / no-cu-lossless / b-intra / no-splitrd-skip / rdpenalty=0 / psy-rd=2.00 / psy-rdoq=1.00 / no-rd-refine / no-lossless / cbqpoffs=0 / crqpoffs=0 / rc=crf / crf=18.5 / qcomp=0.65 / qpstep=4 / stats-write=0 / stats-read=0 / vbv-maxrate=80000 / vbv-bufsize=80000 / vbv-init=0.9 / crf-max=0.0 / crf-min=0.0 / ipratio=1.40 / pbratio=1.30 / aq-mode=2 / aq-strength=0.85 / cutree / zone-count=0 / no-strict-cbr / qg-size=32 / no-rc-grain / qpmax=69 / qpmin=0 / no-const-vbv / sar=1 / overscan=0 / videoformat=5 / range=0 / colorprim=1 / transfer=1 / colormatrix=1 / chromaloc=0 / display-window=0 / max-cll=0,0 / min-luma=0 / max-luma=1023 / log2-max-poc-lsb=8 / vui-timing-info / vui-hrd-info / slices=1 / no-opt-qp-pps / no-opt-ref-list-length-pps / no-multi-pass-opt-rps / scenecut-bias=0.05 / no-opt-cu-delta-qp / no-aq-motion / no-hdr / no-hdr-opt / no-dhdr10-opt / no-idr-recovery-sei / analysis-reuse-level=5 / scale-factor=0 / refine-intra=0 / refine-inter=0 / refine-mv=0 / refine-ctu-distortion=0 / no-limit-sao / ctu-info=0 / no-lowpass-dct / refine-analysis-type=0 / copy-pic=1 / max-ausize-factor=1.0 / no-dynamic-refine / no-single-sei / no-hevc-aq / qp-adaptation-range=1.00

  35. Language : English

  36. Default : Yes

  37. Forced : No

  38. Color range : Limited

  39. Color primaries : BT.709

  40. Transfer characteristics : BT.709

  41. Matrix coefficients : BT.709

  42. Audio #1

  43. ID : 2

  44. Format : MLP FBA 16-ch

  45. Format/Info : Meridian Lossless Packing FBA with 16-channel presentation

  46. Commercial name : Dolby TrueHD with Dolby Atmos

  47. Codec ID : A_TRUEHD

  48. Duration : 2 h 9 min

  49. Bit rate mode : Variable

  50. Bit rate : 4 669 kb/s

  51. Maximum bit rate : 6 357 kb/s

  52. Channel(s) : 8 channels

  53. Channel layout : L R C LFE Ls Rs Lb Rb

  54. Sampling rate : 48.0 kHz

  55. Frame rate : 1 200.000 FPS (40 SPF)

  56. Compression mode : Lossless

  57. Stream size : 4.21 GiB (37%)

  58. Title : English Dolby TrueHD 7.1 (Atmos) @ 4669 kbps

  59. Language : English

  60. Default : Yes

  61. Forced : No

  62. Number of dynamic objects : 15

  63. Bed channel count : 1 channel

  64. Bed channel configuration : LFE

  65. Audio #2

  66. ID : 3

  67. Format : AC-3

  68. Format/Info : Audio Coding 3

  69. Commercial name : Dolby Digital

  70. Codec ID : A_AC3

  71. Duration : 2 h 9 min

  72. Bit rate mode : Constant

  73. Bit rate : 640 kb/s

  74. Channel(s) : 6 channels

  75. Channel layout : L R C LFE Ls Rs

  76. Sampling rate : 48.0 kHz

  77. Frame rate : 31.250 FPS (1536 SPF)

  78. Compression mode : Lossy

  79. Delay relative to video : 28 ms

  80. Stream size : 591 MiB (5%)

  81. Title : English AC3 5.1-EX @ 640 kbps

  82. Language : English

  83. Service kind : Complete Main

  84. Default : No

  85. Forced : No

  86. Text #1

  87. ID : 4

  88. Format : PGS

  89. Codec ID : S_HDMV/PGS

  90. Codec ID/Info : Picture based subtitle format used on BDs/HD-DVDs

  91. Duration : 2 h 0 min

  92. Bit rate : 52.1 kb/s

  93. Count of elements : 3023

  94. Stream size : 44.8 MiB (0%)

  95. Title : Eng/SUP

  96. Language : English

  97. Default : No

  98. Forced : No

  99. Text #2

  100. ID : 5

  101. Format : PGS

  102. Codec ID : S_HDMV/PGS

  103. Codec ID/Info : Picture based subtitle format used on BDs/HD-DVDs

  104. Duration : 2 h 0 min

  105. Bit rate : 46.0 kb/s

  106. Count of elements : 4648

  107. Stream size : 39.6 MiB (0%)

  108. Title : Chs/SUP 简体

  109. Language : Chinese

  110. Default : Yes

  111. Forced : No

  112. Text #3

  113. ID : 6

  114. Format : PGS

  115. Codec ID : S_HDMV/PGS

  116. Codec ID/Info : Picture based subtitle format used on BDs/HD-DVDs

  117. Duration : 2 h 8 min

  118. Bit rate : 32.8 kb/s

  119. Count of elements : 4342

  120. Stream size : 30.2 MiB (0%)

  121. Title : Cht/SUP 繁体(HK)

  122. Language : Chinese

  123. Default : No

  124. Forced : No

  125. Text #4

  126. ID : 7

  127. Format : PGS

  128. Codec ID : S_HDMV/PGS

  129. Codec ID/Info : Picture based subtitle format used on BDs/HD-DVDs

  130. Duration : 2 h 0 min

  131. Bit rate : 39.5 kb/s

  132. Count of elements : 3641

  133. Stream size : 33.9 MiB (0%)

  134. Title : Cht/SUP 繁体(TW)

  135. Language : Chinese

  136. Default : No

  137. Forced : No

  138. Menu

  139. 00:00:02.020 : en:第 01 章

  140. 00:10:18.344 : en:第 02 章

  141. 00:21:12.080 : en:第 03 章

  142. 00:29:26.491 : en:第 04 章

  143. 00:39:57.705 : en:第 05 章

  144. 00:49:23.770 : en:第 06 章

  145. 01:03:27.280 : en:第 07 章

  146. 01:14:43.247 : en:第 08 章

  147. 01:26:38.962 : en:第 09 章

  148. 01:33:08.559 : en:第 10 章

  149. 01:40:35.172 : en:第 11 章

  150. 01:54:05.023 : en:第 12 章


复制代码



文件下载


除非特别注明,本文『惊天魔盗团[共2部合集][简繁英字幕].Now.You.See.Me.1-2.2013-2016.BluRay.1080p.DTS-HD.MA.7.1.x265.10bit-ALT 24.67GB』来源于互联网机器人自动抓取,非本站原创。 浮游电影网不对本文拥有版权,如有侵犯,请联系邮箱:fuyouu#yandex.com[#换成@]投诉。我们会在15个工作日内删除。 但烦请转载时请标明出处:“本文转载于『浮游电影网』,原文地址:https://www.fuyouu.com/21375.html

评论吧骚年!

发表你的见解   

昵称*

E-mail*(建议输入,以便收到博主回复的提示邮件)

验证码*

您可以使用eMule或eMule Mod(Windows)、aMule(Win、Linux、Mac)等软件下载eD2k链接。。
eMule收藏集(.emulecollection)文件是您选中的所有链接的列表文件。eMule可以直接下载它们。
按住SHIFT键选择可以选中多个选择框。
可用文件名和大小选择器来选择文件。
文件名选择器帮您根据文件名称或后缀来选择文件。不分大小写。
符号使用:
和:空格( )、+
不包含:-
或:|
转义:一对英文引号("");
匹配开头:^
匹配结尾:$
例如:
选中所有名称中包含有“eMule”或“0.49c”字眼,但不包含有“exe”字眼的:emule|0.49c -exe
选中所有名称的开头是“eMule”,结尾是“0.49c”的:^emule 0.49c$
选中所有名称中带有“eMule 0.49c”的(必须是“eMule 0.49c”,中间没有别的字符,不能是“eMule fake 0.49c”),需要转义:"emule 0.49c"
大小选择器帮您根据文件大小选择文件。