当前位置: 首页 >> 欧美电影 >> 博物馆奇妙夜[共3部合集][国英多音轨/简繁英字幕].Night.at.the.Museum.1-3.2006-2014.BluRay.1080p.2Audio.DTS-HD.MA7.1.x265.1 >> 正文

博物馆奇妙夜[共3部合集][国英多音轨/简繁英字幕].Night.at.the.Museum.1-3.2006-2014.BluRay.1080p.2Audio.DTS-HD.MA7.1.x265.1

2022年04月15日 14:03:17     电影发布:来源于网络     电影分类:欧美电影     评论(0)    

博物馆奇妙夜[共3部合集][国英多音轨/简繁英字幕].Night.at.the.Museum.1 3.2006 2014.BluRay.1080p.2Audio.DTS HD.MA7.1.x265.1  欧美电影  第1张

◎译 名 博物馆奇妙夜 / 翻生侏罗馆(港) / 博物馆惊魂夜(台) / 博物馆之夜

◎片 名 Night at the Museum

◎年 代 2006

◎产 地 美国 / 英国

◎类 别 喜剧 / 动作 / 家庭 / 奇幻 / 冒险

◎语 言 英语 / 意大利语 / 希伯来语 / 匈奴语 / 阿拉伯语

◎上映日期 2007-02-14(中国大陆) / 2006-12-17(纽约首映) / 2006-12-22(美国)

◎IMDb链接 https://www.imdb.com/title/tt0477347/

◎豆瓣评分 7.6/10 (261939人评价)

◎豆瓣链接 https://movie.douban.com/subject/1835843/

◎片 长 108分钟

◎导 演 肖恩·利维 Shawn Levy (id:1289935)

◎编 剧 罗伯特·本·加兰特 Robert Ben Garant (id:1049815)

托马斯·列农 Thomas Lennon (id:1025213)

米兰·崔克 Milan Trenc (id:1322857)

◎演 员 本·斯蒂勒 Ben Stiller (id:1054412)

欧文·威尔逊 Owen Wilson (id:1006964)

罗宾·威廉姆斯 Robin Williams (id:1009241)

迪克·范·戴克 Dick Van Dyke (id:1036423)

米基·鲁尼 Mickey Rooney (id:1054487)

比尔·考布斯 Bill Cobbs (id:1019099)

杰克·切里 Jake Cherry (id:1307467)

瑞奇·热维斯 Ricky Gervais (id:1009297)

基姆·瑞弗 Kim Raver (id:1031933)

派崔克·盖勒 Patrick Gallagher (id:1031954)

米苏·贝克 Mizuo Peck (id:1022712)

王衡 Heng Wang (id:1374803)

马修·沃克 Matthew Walker (id:1161517)

布拉德·加内特 Brad Garrett (id:1002727)

水晶 Crystal the Monkey (id:1322489)

保罗·路德 Paul Rudd (id:1002667)

杰森·麦金农 Jason McKinnon (id:1038632)

史蒂夫·库根 Steve Coogan (id:1027820)

拉米·马雷克 Rami Malek (id:1044903)

卡拉·古奇诺 Carla Gugino (id:1049495)

Martin Christopher Martin Christopher (id:1213950)

Meshach Peters Meshach Peters (id:1213416)

查理·墨菲 Charles Q. Murphy (id:1010464)

皮耶尔弗兰切斯科·法维诺 Pierfrancesco Favino (id:1049937)

安妮·米拉 Anne Meara (id:1049786)

马修·哈里逊 Matthew Harrison (id:1036981)

克里斯·哥伦布 Chris Columbus (id:1049716)

肖恩·利维 Shawn Levy (id:1289935)

Thomas M. Hammel Thomas M. Hammel (id:1285918)

乔什·麦克拉伦 Josh McLaglen (id:1032698)

Ellen Somers Ellen Somers (id:1298051)

马克·雷德克里夫 Mark Radcliffe (id:1139748)

亚伦·史维斯查 Alan Silvestri (id:1002819)

吉列尔莫·纳瓦罗 Guillermo Navarro (id:1292948)

唐·齐默尔曼 Don Zimmerman (id:1301742)

Ilene Starger Ilene Starger (id:1298269)

Michele Laliberte Michele Laliberte (id:1303396)

Claude Paré Claude Paré (id:1294031)

Helen Jarvis Helen Jarvis (id:1023878)

蕾妮·艾珀尔 Renée April (id:1277332)

维多利亚·道恩 Victoria Down (id:1282673)

Cheri Minns Cheri Minns (id:1292175)

艾德里安·莫罗特 Adrien Morot (id:1292524)

Sarah Graham Sarah Graham (id:1171870)

Nina Paskowitz Nina Paskowitz (id:1294045)

Geoff Redknap Geoff Redknap (id:1295362)

苏珊·波伊德 Susan Boyd (id:1069324)

Maryann Marchetti Maryann Marchetti (id:1290944)

吉特·阿克森 Gitte Axen (id:1058385)

凯特·比斯科 Kate Biscoe (id:1278692)

布莱恩·斯莫兹 Brian Smrz (id:1297965)

乔什·麦克拉伦 Josh McLaglen (id:1032698)

吉姆·瑞吉尔 Jim Rygiel (id:1296402)

Gary Hawes Gary Hawes (id:1215467)

Dan Mansfield Dan Mansfield (id:1290906)

Rhonda Taylor Rhonda Taylor (id:1149489)

大卫·吉亚马科 David Giammarco (id:1284792)

丹·拉扎洛 Dan Lazarow (id:1106331)

杰森·昆塔纳 Jason Quintana (id:1210284)

Peter Vaughn Jervis Peter Vaughn Jervis (id:1210905)

内森·布伦斯基尔 Nathan Brunskill (id:1214021)

Ryan Swanno (id:1229343)

Sean Wallitsch (id:1234089)

丹尼塔·斯劳格赫特尔 Danita Slaughter (id:1239865)

David Luong (id:1240474)

James Michael Miller James Michael Miller (id:1205080)

丹·斯密泽克 Dan Smiczek (id:1200670)

Jim O'Hagan Jim O'Hagan (id:1126364)

Mark Moore Mark Moore (id:1133960)

Rick Rische Rick Rische (id:1148188)

Roberto Smith Roberto Smith (id:1158130)

托尼·艾蒂安 Tony Etienne (id:1170802)

Carol Madrigal Carol Madrigal (id:1181684)

达米恩·卡尔 Damien Carr (id:1182797)

保罗·弗明格 Paul Furminger (id:1183163)

查尔斯·施瓦茨 Charles Schwartz (id:1183413)

Scott Paquin Scott Paquin (id:1194416)

Matthew Doll (id:1247898)

Graeme Baitz (id:1248531)

Paul Haman (id:1249061)

Ellen Somers Ellen Somers (id:1298051)

Geoffrey Hancock Geoffrey Hancock (id:1302079)

麦特·沙姆韦 Matt Shumway (id:1305856)

Richard Mahon Richard Mahon (id:1306429)

Adam de Bosch Kemper Adam de Bosch Kemper (id:1307682)

龙子乔 Joe Ksander (id:1308172)

Abel Milanes Abel Milanes (id:1310582)

斯科特·查尔斯·斯图瓦特 Scott Charles Stewart (id:1327068)

丹·德里伍 Dan DeLeeuw (id:1388220)

乔纳森·罗斯巴特 Jonathan Rothbart (id:1296181)

Jinnie Pak Jinnie Pak (id:1293822)

格罗弗·理查森 Grover Richardson (id:1257679)

Marc Sadeghi Marc Sadeghi (id:1276440)

莱斯·伯恩斯汀 Les Bernstien (id:1278498)

Simon Cheung Simon Cheung (id:1280629)

埃里克·德·波尔 Erik De Boer (id:1281992)

Peter Hunt Peter Hunt (id:1287171)

伊恩·亨特 Ian Hunter (id:1287177)

Tex Kadonaga Tex Kadonaga (id:1287999)

卢克·奥伯恩 Luke O'Byrne (id:1293374)

吉姆·瑞吉尔 Jim Rygiel (id:1296402)

Christopher Johnson Christopher Johnson (id:1105844)

克里斯·英格索尔 Chris Ingersoll (id:1102738)

克里斯托弗·米尔斯 Christopher Mills (id:1007378)

迈克尔·乔伊斯 Michael Joyce (id:1008348)

Tim Miller Tim Miller (id:1034423)

安东尼·哈里斯 Anthony Harris (id:1017246)

凯西·艾伦 Casey Allen (id:1020582)

克里斯·道森 Chris Dawson (id:1021167)

埃德森·威廉姆斯 Edson Williams (id:1043237)

保罗·坎皮恩 Paul Campion (id:1042566)

埃里克·赛恩登 Eric Saindon (id:1038266)

西蒙·阿格 Simon Ager (id:1060292)

托尼·巴拉萨 Tony Barraza (id:1061802)

Lyndon Barrois Lyndon Barrois (id:1063495)

Timothy Hoffman Timothy Hoffman (id:1094813)

布莱恩·哈纳伯 Brian Hanable (id:1090997)

帕特里克·克兰斯 Patrick Clancey (id:1071903)

罗伯特·查平 Robert Chapin (id:1069731)

Craig Calvert Craig Calvert (id:1307283)

Tim T. Cunningham Tim T. Cunningham (id:1005656)

布鲁斯·沃洛申 Bruce Woloshyn (id:1003649)

◎简 介

拉里·达利(本·斯蒂勒 饰)生活似乎不太顺利:经常换工作,居无定所;妻子与他离婚,找了一个证券经纪人,即将再婚,自己在儿子心目中的地位也岌岌可危。

达利为了挽救自己的生活,也为了争取到儿子的抚养权,他不得不放弃“做大事”的梦想,成为了纽约自然博物馆的夜间警卫。

达利原本 以为这是一份无聊的工作,谁知道上班的第一天,不可思议的事情就发生了:博物馆里的法老金牌拥有神奇的魔法,当夜晚来临的时候,馆中所有的标本都会活过来,追逐骨头的霸王龙、爱捣乱的猴子、暴虐的匈奴王、钻木取火的穴居人……将一切弄得不可开交。在26任总统特迪·罗斯福的帮助下,达利好不容易控制住了局面,但是,他马上又遇到了新的麻烦:有人想打法老金牌的主意。职责所在,也是为了博物馆夜晚的奇迹,达利不得不挺身而出。

◎获奖情况 (共1项)

第16届MTV电影奖 (2007)

MTV电影奖 最佳喜剧表演(提名)

└──本·斯蒂勒 (id:1054412)

  1. 合集文件列表:

  2. 1.Night.At.The.Museum.2.2009.BluRay.1080p.2Audio.DTS-HD.MA5.1.x265.10bit-ALT.mkv 14.45GB

  3. 2.Night.at.the.Museum.2006.BluRay.1080p.DTS-HD.MA5.1.x265.10bit-ALT.mkv 12.08GB

  4. 3.Night.at.the.Museum.Secret.of.the.Tomb.2014.BluRay.1080p.2Audio.DTS-HD.MA7.1.x265.10bit-ALT.mkv 9.93GB


复制代码

  1. ##### MediaInfo ######

  2. General

  3. Unique ID : 273299559074023482551685405537155498098 (0xCD9B9499150B1E07368C6A2319B94072)

  4. Complete name : Night.At.The Museum.2.2009.BluRay.1080p.2Audio.DTS-HD.MA5.1.x265.10bit-BeiTai.mkv

  5. Format : Matroska

  6. Format version : Version 4

  7. File size : 14.5 GiB

  8. Duration : 1 h 44 min

  9. Overall bit rate mode : Variable

  10. Overall bit rate : 19.8 Mb/s

  11. Encoded date : UTC 2019-11-10 03:20:47

  12. Writing application : mkvmerge v40.0.0 ('Old Town Road + Pony') 64-bit

  13. Writing library : libebml v1.3.9 + libmatroska v1.5.2

  14. Video

  15. ID : 1

  16. Format : HEVC

  17. Format/Info : High Efficiency Video Coding

  18. Format profile : Main [email protected]@High

  19. HDR format : SMPTE ST 2086

  20. Codec ID : V_MPEGH/ISO/HEVC

  21. Duration : 1 h 44 min

  22. Bit rate : 14.6 Mb/s

  23. Width : 1 920 pixels

  24. Height : 816 pixels

  25. Display aspect ratio : 2.35:1

  26. Frame rate mode : Constant

  27. Frame rate : 23.976 (24000/1001/53354) FPS

  28. Color space : YUV

  29. Chroma subsampling : 4:2:0

  30. Bit depth : 10 bits

  31. Bits/(Pixel*Frame) : 0.388

  32. Stream size : 10.7 GiB (74%)

  33. Title : HEVC, [email protected]@High, 24/1.001 fps @ 14582 kbps

  34. Writing library : x265 3.0_Au+4-dcbec33bfb0f:[Windows][GCC 8.2.1][64 bit] 10bit

  35. Encoding settings : cpuid=533541111039 / frame-threads=3 / numa-pools=8 / wpp / pmode / pme / no-psnr / no-ssim / log-level=2 / input-csp=1 / input-res=1920x816 / interlace=0 / total-frames=150648 / level-idc=51 / high-tier=1 / uhd-bd=0 / ref=5 / no-allow-non-conformance / repeat-headers / annexb / no-aud / no-hrd / info / hash=0 / no-temporal-layers / no-open-gop / min-keyint=24 / keyint=240 / gop-lookahead=0 / bframes=6 / b-adapt=2 / b-pyramid / bframe-bias=0 / rc-lookahead=40 / lookahead-slices=0 / NTMzNTQ=uuDQuD2mJt9fsCf / scenecut=40 / radl=0 / no-splice / no-intra-refresh / ctu=32 / min-cu-size=8 / no-rect / no-amp / max-tu-size=32 / tu-inter-depth=3 / tu-intra-depth=3 / limit-tu=4 / rdoq-level=2 / dynamic-rd=0.00 / no-ssim-rd / signhide / no-tskip / nr-intra=0 / nr-inter=0 / no-constrained-intra / no-strong-intra-smoothing / max-merge=4 / limit-refs=1 / limit-modes / me=3 / subme=4 / merange=25 / temporal-mvp / weightp / weightb / no-analyze-src-pics / deblock=-3:-3 / no-sao / no-sao-non-deblock / rd=6 / no-early-skip / rskip / no-fast-intra / no-tskip-fast / no-cu-lossless / b-intra / no-splitrd-skip / rdpenalty=0 / psy-rd=2.00 / psy-rdoq=1.00 / no-rd-refine / no-lossless / cbqpoffs=0 / crqpoffs=0 / rc=crf / crf=18.5 / qcomp=0.65 / qpstep=4 / stats-write=0 / stats-read=0 / vbv-maxrate=80000 / vbv-bufsize=80000 / vbv-init=0.9 / crf-max=0.0 / crf-min=0.0 / ipratio=1.40 / pbratio=1.30 / aq-mode=2 / aq-strength=0.85 / cutree / zone-count=0 / no-strict-cbr / qg-size=32 / no-rc-grain / qpmax=69 / qpmin=0 / no-const-vbv / sar=1 / overscan=0 / videoformat=5 / range=0 / colorprim=1 / transfer=1 / colormatrix=1 / chromaloc=0 / display-window=0 / master-display=G(15000,30000)B(7500,3000)R(32000,16500)WP(15635,16450)L(10000000,1) / max-cll=1000,1 / min-luma=0 / max-luma=1023 / log2-max-poc-lsb=8 / vui-timing-info / vui-hrd-info / slices=1 / no-opt-qp-pps / no-opt-ref-list-length-pps / no-multi-pass-opt-rps / scenecut-bias=0.05 / no-opt-cu-delta-qp / no-aq-motion / hdr / no-hdr-opt / no-dhdr10-opt / no-idr-recovery-sei / analysis-reuse-level=5 / scale-factor=0 / refine-intra=0 / refine-inter=0 / refine-mv=0 / refine-ctu-distortion=0 / no-limit-sao / ctu-info=0 / no-lowpass-dct / refine-analysis-type=0 / copy-pic=1 / max-ausize-factor=1.0 / no-dynamic-refine / no-single-sei / no-hevc-aq / qp-adaptation-range=1.00

  36. Language : English

  37. Default : Yes

  38. Forced : No

  39. Color range : Limited

  40. Color primaries : BT.709

  41. Transfer characteristics : BT.709

  42. Matrix coefficients : BT.709

  43. Mastering display color primaries : BT.709

  44. Mastering display luminance : min: 0.0001 cd/m2, max: 1000 cd/m2

  45. Maximum Content Light Level : 1000 cd/m2

  46. Maximum Frame-Average Light Level : 1 cd/m2

  47. Audio #1

  48. ID : 2

  49. Format : DTS XLL

  50. Format/Info : Digital Theater Systems

  51. Commercial name : DTS-HD Master Audio

  52. Codec ID : A_DTS

  53. Duration : 1 h 44 min

  54. Bit rate mode : Variable

  55. Bit rate : 3 820 kb/s

  56. Channel(s) : 6 channels

  57. Channel layout : C L R Ls Rs LFE

  58. Sampling rate : 48.0 kHz

  59. Frame rate : 93.750 FPS (512 SPF)

  60. Bit depth : 24 bits

  61. Compression mode : Lossless

  62. Delay relative to video : 9 ms

  63. Stream size : 2.79 GiB (19%)

  64. Title : English DTS-HD Master Audio 5.1 @ 3820 kbps

  65. Language : English

  66. Default : Yes

  67. Forced : No

  68. Audio #2

  69. ID : 3

  70. Format : DTS

  71. Format/Info : Digital Theater Systems

  72. Codec ID : A_DTS

  73. Duration : 1 h 44 min

  74. Bit rate mode : Constant

  75. Bit rate : 768 kb/s

  76. Channel(s) : 6 channels

  77. Channel layout : C L R Ls Rs LFE

  78. Sampling rate : 48.0 kHz

  79. Frame rate : 93.750 FPS (512 SPF)

  80. Bit depth : 24 bits

  81. Compression mode : Lossy

  82. Stream size : 575 MiB (4%)

  83. Title : Mandarin DTS 5.1 @ 768 kbps

  84. Language : Chinese

  85. Default : No

  86. Forced : No

  87. Audio #3

  88. ID : 4

  89. Format : AC-3

  90. Format/Info : Audio Coding 3

  91. Commercial name : Dolby Digital

  92. Codec ID : A_AC3

  93. Duration : 1 h 44 min

  94. Bit rate mode : Constant

  95. Bit rate : 224 kb/s

  96. Channel(s) : 2 channels

  97. Channel layout : L R

  98. Sampling rate : 48.0 kHz

  99. Frame rate : 31.250 FPS (1536 SPF)

  100. Compression mode : Lossy

  101. Delay relative to video : 30 ms

  102. Stream size : 168 MiB (1%)

  103. Title : English Dolby Digital Audio 2.0 @ 224 kbps Commentary 1

  104. Language : English

  105. Service kind : Complete Main

  106. Default : No

  107. Forced : No

  108. Audio #4

  109. ID : 5

  110. Format : AC-3

  111. Format/Info : Audio Coding 3

  112. Commercial name : Dolby Digital

  113. Codec ID : A_AC3

  114. Duration : 1 h 44 min

  115. Bit rate mode : Constant

  116. Bit rate : 224 kb/s

  117. Channel(s) : 2 channels

  118. Channel layout : L R

  119. Sampling rate : 48.0 kHz

  120. Frame rate : 31.250 FPS (1536 SPF)

  121. Compression mode : Lossy

  122. Delay relative to video : 30 ms

  123. Stream size : 168 MiB (1%)

  124. Title : English Dolby Digital Audio 2.0 @ 224 kbps Commentary 2

  125. Language : English

  126. Service kind : Complete Main

  127. Default : No

  128. Forced : No

  129. Text #1

  130. ID : 6

  131. Format : PGS

  132. Codec ID : S_HDMV/PGS

  133. Codec ID/Info : Picture based subtitle format used on BDs/HD-DVDs

  134. Duration : 1 h 41 min

  135. Bit rate : 52.6 kb/s

  136. Count of elements : 3422

  137. Stream size : 38.1 MiB (0%)

  138. Title : Eng/SUP

  139. Language : English

  140. Default : No

  141. Forced : No

  142. Text #2

  143. ID : 7

  144. Format : PGS

  145. Codec ID : S_HDMV/PGS

  146. Codec ID/Info : Picture based subtitle format used on BDs/HD-DVDs

  147. Duration : 1 h 38 min

  148. Bit rate : 34.0 kb/s

  149. Count of elements : 2714

  150. Stream size : 24.0 MiB (0%)

  151. Title : Chs/SUP 原盘简体

  152. Language : Chinese

  153. Default : Yes

  154. Forced : No

  155. Text #3

  156. ID : 8

  157. Format : PGS

  158. Codec ID : S_HDMV/PGS

  159. Codec ID/Info : Picture based subtitle format used on BDs/HD-DVDs

  160. Duration : 1 h 43 min

  161. Bit rate : 26.2 kb/s

  162. Count of elements : 2756

  163. Stream size : 19.4 MiB (0%)

  164. Title : Cht/SUP 原盘繁体(HK)

  165. Language : Chinese

  166. Default : No

  167. Forced : No

  168. Text #4

  169. ID : 9

  170. Format : PGS

  171. Codec ID : S_HDMV/PGS

  172. Codec ID/Info : Picture based subtitle format used on BDs/HD-DVDs

  173. Duration : 1 h 43 min

  174. Bit rate : 28.5 kb/s

  175. Count of elements : 2754

  176. Stream size : 21.1 MiB (0%)

  177. Title : Cht/SUP 原盘繁体(TW)

  178. Language : Chinese

  179. Default : No

  180. Forced : No

  181. Menu

  182. 00:00:00.000 : en:第 01 章

  183. 00:03:31.837 : en:第 02 章

  184. 00:06:00.485 : en:第 03 章

  185. 00:08:45.316 : en:第 04 章

  186. 00:15:17.375 : en:第 05 章

  187. 00:19:01.557 : en:第 06 章

  188. 00:23:06.343 : en:第 07 章

  189. 00:27:18.804 : en:第 08 章

  190. 00:30:10.058 : en:第 09 章

  191. 00:34:27.274 : en:第 10 章

  192. 00:35:53.360 : en:第 11 章

  193. 00:39:35.832 : en:第 12 章

  194. 00:45:25.514 : en:第 13 章

  195. 00:50:48.462 : en:第 14 章

  196. 00:56:06.822 : en:第 15 章

  197. 00:59:42.245 : en:第 16 章

  198. 01:03:09.244 : en:第 17 章

  199. 01:05:57.328 : en:第 18 章

  200. 01:08:16.259 : en:第 19 章

  201. 01:12:20.294 : en:第 20 章

  202. 01:18:32.917 : en:第 21 章

  203. 01:20:42.963 : en:第 22 章

  204. 01:30:05.859 : en:第 23 章

  205. 01:39:43.477 : en:第 24 章


复制代码



文件下载


除非特别注明,本文『博物馆奇妙夜[共3部合集][国英多音轨/简繁英字幕].Night.at.the.Museum.1-3.2006-2014.BluRay.1080p.2Audio.DTS-HD.MA7.1.x265.1』来源于互联网机器人自动抓取,非本站原创。 浮游电影网不对本文拥有版权,如有侵犯,请联系邮箱:fuyouu#yandex.com[#换成@]投诉。我们会在15个工作日内删除。 但烦请转载时请标明出处:“本文转载于『浮游电影网』,原文地址:https://www.fuyouu.com/21374.html

评论吧骚年!

发表你的见解   

昵称*

E-mail*(建议输入,以便收到博主回复的提示邮件)

验证码*

您可以使用eMule或eMule Mod(Windows)、aMule(Win、Linux、Mac)等软件下载eD2k链接。。
eMule收藏集(.emulecollection)文件是您选中的所有链接的列表文件。eMule可以直接下载它们。
按住SHIFT键选择可以选中多个选择框。
可用文件名和大小选择器来选择文件。
文件名选择器帮您根据文件名称或后缀来选择文件。不分大小写。
符号使用:
和:空格( )、+
不包含:-
或:|
转义:一对英文引号("");
匹配开头:^
匹配结尾:$
例如:
选中所有名称中包含有“eMule”或“0.49c”字眼,但不包含有“exe”字眼的:emule|0.49c -exe
选中所有名称的开头是“eMule”,结尾是“0.49c”的:^emule 0.49c$
选中所有名称中带有“eMule 0.49c”的(必须是“eMule 0.49c”,中间没有别的字符,不能是“eMule fake 0.49c”),需要转义:"emule 0.49c"
大小选择器帮您根据文件大小选择文件。