当前位置: 首页 >> 欧美电影 >> 国家宝藏[共2部合集][简繁英字幕].National.Treasure.1-2.2004-2007.BluRay.1080p.TrueHD.5.1.x265.10bit-ALT 23.30GB >> 正文

国家宝藏[共2部合集][简繁英字幕].National.Treasure.1-2.2004-2007.BluRay.1080p.TrueHD.5.1.x265.10bit-ALT 23.30GB

2022年04月15日 14:02:07     电影发布:来源于网络     电影分类:欧美电影     评论(0)    

国家宝藏[共2部合集][简繁英字幕].National.Treasure.1 2.2004 2007.BluRay.1080p.TrueHD.5.1.x265.10bit ALT 23.30GB  欧美电影  第1张

◎译 名 国家宝藏 / 惊天夺宝(港) / 国家财宝

◎片 名 National Treasure

◎年 代 2004

◎产 地 美国

◎类 别 动作 / 悬疑 / 冒险

◎语 言 英语 / 西班牙语

◎上映日期 2004-11-19(美国)

◎IMDb链接 https://www.imdb.com/title/tt0368891/

◎豆瓣评分 7.7/10 (145058人评价)

◎豆瓣链接 https://movie.douban.com/subject/1308848/

◎片 长 131 分钟

◎导 演 乔·德特杜巴 Jon Turteltaub (id:1022710)

◎编 剧 吉姆·科夫 Jim Kouf (id:1023146)

科马克·韦伯利 Cormac Wibberley (id:1041775)

玛丽安·韦伯利 Marianne Wibberley (id:1018458)

奥伦·艾维夫 Oren Aviv (id:1050653)

查尔斯·西格斯 Charles Segars (id:1001273)

◎演 员 尼古拉斯·凯奇 Nicolas Cage (id:1054455)

黛安·克鲁格 Diane Kruger (id:1025151)

贾斯汀·巴萨 Justin Bartha (id:1009257)

肖恩·宾 Sean Bean (id:1002683)

强·沃特 Jon Voight (id:1013838)

哈威·凯特尔 Harvey Keitel (id:1048131)

克里斯托弗·普卢默 Christopher Plummer (id:1036321)

大卫·达耶·费舍尔 David Dayan Fisher (id:1324280)

斯图华特·芬雷-麦克勒兰 Stewart Finlay-McLennan (id:1088800)

欧勒格·塔克塔罗夫 Oleg Taktarov (id:1049651)

Stephen A. Pope Stephen A. Pope (id:1126763)

安妮·帕里西 Annie Parisse (id:1022718)

马克·佩雷格里诺 Mark Pellegrino (id:1000070)

阿曼德·里斯科 Armando Riesco (id:1225193)

埃里克·金 Erik King (id:1318683)

亨特·戈麦斯 Hunter Gomez (id:1037008)

杰森·厄尔斯 Jason Earles (id:1044873)

托尼·德文 Tony Devon (id:1054317)

Antony Alda Antony Alda (id:1060295)

小托尼·卢克 Tony Luke Jr. (id:1032400)

亚历山大·埃默特 Alexander Emmert (id:1028437)

张磊 Lei Zhang (id:1340809)

托尼·斯威夫特 Tony Swift (id:1010186)

Michael Russo Michael Russo (id:1296365)

Gavin Black Gavin Black (id:1064008)

詹姆斯·比贝里 James Biberi (id:1064384)

Jonathon Ruckman Jonathon Ruckman (id:1187059)

Terrence Currier Terrence Currier (id:1070451)

Ryan Tygh Ryan Tygh (id:1181374)

路易斯·森坦尼 Louis Centanni (id:1181166)

Jenni Lileikis Jenni Lileikis (id:1180229)

罗恩·坎纳达 Ron Canada (id:1076609)

Deborah Yates Deborah Yates (id:1163892)

阿拉贝拉·菲尔德 Arabella Field (id:1087451)

托尼·萨加斯蒂多一世 Tony Sagastizado I (id:1145317)

罗德尼·J·霍布斯 Rodney J. Hobbs (id:1093861)

罗德·麦克拉兰 Rod McLachlan (id:1120693)

Jackson Bolt Jackson Bolt (id:1190034)

约书亚·比顿 Joshua Biton (id:1066562)

Joe Rampino (id:1258697)

Suzanne Dengel Suzanne Dengel (id:1246860)

Colleen Dengel Colleen Dengel (id:1245126)

Keyon Smith (id:1228511)

Blaze Kelly Coyle (id:1225477)

Sheila Thomas (id:1224568)

克里斯·麦克马林 Chris McMullin (id:1210710)

尼克·本森 Nick Benson (id:1209268)

Neal Orion Neal Orion (id:1208117)

丹尼尔·费罗 Daniel Ferro (id:1204441)

Chrismandu Chrismandu (id:1203526)

Kym Cohen Kym Cohen (id:1200019)

Yoshi Jenkins Yoshi Jenkins (id:1111901)

查尔斯·西格斯 Charles Segars (id:1001273)

奥伦·艾维夫 Oren Aviv (id:1050653)

杰瑞·布鲁克海默 Jerry Bruckheimer (id:1049617)

乔·德特杜巴 Jon Turteltaub (id:1022710)

克里斯蒂娜·斯坦伯格 Christina Steinberg (id:1298327)

特沃·拉宾 Trevor Rabin (id:1014253)

凯莱布·德夏奈尔 Caleb Deschanel (id:1049841)

艾薇·考夫曼 Avy Kaufman (id:1288224)

Lawrence A. Hubbs Lawrence A. Hubbs (id:1287063)

Anne D. McCulley Anne D. McCulley (id:1291504)

Geoff Hubbard Geoff Hubbard (id:1287061)

朱迪安娜·马科夫斯基 Judianna Makovsky (id:1290783)

Jay Wejebe Jay Wejebe (id:1300656)

Janice Tunnell Janice Tunnell (id:1195477)

Allen Weisinger Allen Weisinger (id:1300632)

Robin Beauchesne Robin Beauchesne (id:1278159)

朱迪·金 Judy Chin (id:1280574)

比特丽斯·德·阿尔巴 Beatrice De Alba (id:1281966)

斯科特·帕顿 Scott Patton (id:1294104)

卡罗尔·A·奥康奈尔 Carol A. O'Connell (id:1293382)

Kris Evans Kris Evans (id:1283346)

Erwin H. Kupitz Erwin H. Kupitz (id:1289083)

Scott H. Eddo Scott H. Eddo (id:1089511)

格雷迪·霍德尔 Grady Holder (id:1094670)

George Marshall Ruge George Marshall Ruge (id:1137556)

Bob Wagner Bob Wagner (id:1161649)

Katie Carroll Katie Carroll (id:1280171)

菲利普·G·阿特威尔 Philip G. Atwell (id:1277554)

Conte Matal Conte Matal (id:1119209)

米克·罗杰斯 Mic Rodgers (id:1295865)

Jane Ferguson Jane Ferguson (id:1304827)

马库斯·尼斯佩尔 Marcus Nispel (id:1000324)

Michael Porterfield Michael Porterfield (id:1052526)

Kosta Saric Kosta Saric (id:1031778)

内森·麦克基尼斯 Nathan McGuinness (id:1291611)

肖恩·安德鲁·法登 Sean Andrew Faden (id:1283408)

Leigh-Alexandra Jacob Leigh-Alexandra Jacob (id:1287495)

Anupam Das Anupam Das (id:1309129)

马修·格拉茨纳 Matthew Gratzner (id:1285331)

克拉斯·汉克 Claas Henke (id:1286435)

Enrico Altmann Enrico Altmann (id:1182422)

Amit Dhawal Amit Dhawal (id:1020728)

马克·瓦里斯科 Marc Varisco (id:1017214)

安迪·巴里奥斯 Andy Barrios (id:1163399)

Steve Muangman Steve Muangman (id:1175563)

◎简 介

盖茨家族是出名的冒险家家族。本(尼古拉斯?凯奇 Nicolas Cage 饰)小时候就获悉了他们家族的一个惊天秘密:美国开国时埋藏国家财富的地点就藏在《独立宣言》中。尽管父亲不想盖茨家族在纠缠于国家宝藏,但本还是与电脑高手雷利(贾斯汀?巴萨 Justin Bartha 饰)一起开始了寻宝行动。

本的寻宝计划很快陷入了僵局。与此同时,英国富豪伊恩(肖恩?宾 Sean Bean 饰)也盯上了这个宝藏,他派人潜入了美国国家图书找寻《独立宣言》中宝藏的秘密并密谋对付本。图书馆的艾比嘉尔博士(戴安?克鲁格 Diane Kruger 饰)获悉了伊恩的险恶用心后,决心帮助本找到国家宝藏……

  1. 合集文件列表:

  2. 1.National.Treasure.2004.BluRay.1080p.TrueHD.5.1.x265.10bit-ALT.mkv 11.15GB

  3. 2.National.Treasure.Book.of.Secrets.2007.BluRay.1080p.AC3.x265.10bit-ALT.mkv 12.15GB


复制代码

  1. ##### MediaInfo ######

  2. General

  3. Unique ID : 311606409172162793128424317459307897494 (0xEA6D3620320F00224851CEE57BAB2296)

  4. Complete name : National.Treasure.2004.BluRay.1080p.TrueHD.5.1.x265.10bit-BeiTai.mkv

  5. Format : Matroska

  6. Format version : Version 4

  7. File size : 11.2 GiB

  8. Duration : 2 h 11 min

  9. Overall bit rate mode : Variable

  10. Overall bit rate : 12.2 Mb/s

  11. Encoded date : UTC 2020-05-01 01:41:48

  12. Writing application : mkvmerge v45.0.0 ('Heaven in Pennies') 64-bit

  13. Writing library : libebml v1.3.10 + libmatroska v1.5.2

  14. Video

  15. ID : 1

  16. Format : HEVC

  17. Format/Info : High Efficiency Video Coding

  18. Format profile : Main [email protected]@High

  19. Codec ID : V_MPEGH/ISO/HEVC

  20. Duration : 2 h 11 min

  21. Bit rate : 9 441 kb/s

  22. Width : 1 920 pixels

  23. Height : 798 pixels

  24. Display aspect ratio : 2.40:1

  25. Frame rate mode : Constant

  26. Frame rate : 23.976 (24000/1001/53354) FPS

  27. Color space : YUV

  28. Chroma subsampling : 4:2:0

  29. Bit depth : 10 bits

  30. Bits/(Pixel*Frame) : 0.257

  31. Stream size : 8.64 GiB (78%)

  32. Title : HEVC, [email protected]@High, 24/1.001 fps @ 9440 kbps

  33. Writing library : x265 3.3+1-g396395b2b:[Windows][GCC 9.2.0][64 bit] 10bit

  34. Encoding settings : cpuid=533541111039 / frame-threads=4 / numa-pools=16 / wpp / pmode / pme / no-psnr / no-ssim / log-level=2 / input-csp=1 / input-res=1920x798 / interlace=0 / total-frames=188559 / level-idc=51 / high-tier=1 / uhd-bd=0 / ref=5 / no-allow-non-conformance / no-repeat-headers / annexb / no-aud / no-hrd / info / hash=0 / no-temporal-layers / open-gop / min-keyint=24 / keyint=240 / gop-lookahead=0 / bframes=6 / b-adapt=2 / b-pyramid / bframe-bias=0 / rc-lookahead=40 / lookahead-slices=0 / NTMzNTQ=uuDQuD2mJt9fsCf / scenecut=40 / hist-scenecut=0 / radl=0 / no-splice / no-intra-refresh / ctu=32 / min-cu-size=8 / no-rect / no-amp / max-tu-size=32 / tu-inter-depth=3 / tu-intra-depth=3 / limit-tu=4 / rdoq-level=2 / dynamic-rd=0.00 / no-ssim-rd / signhide / no-tskip / nr-intra=0 / nr-inter=0 / no-constrained-intra / no-strong-intra-smoothing / max-merge=4 / limit-refs=1 / limit-modes / me=3 / subme=4 / merange=25 / temporal-mvp / no-frame-dup / no-hme / weightp / weightb / no-analyze-src-pics / deblock=-3:-3 / no-sao / no-sao-non-deblock / rd=6 / selective-sao=0 / no-early-skip / rskip / no-fast-intra / no-tskip-fast / no-cu-lossless / b-intra / no-splitrd-skip / rdpenalty=0 / psy-rd=2.00 / psy-rdoq=1.00 / no-rd-refine / no-lossless / cbqpoffs=0 / crqpoffs=0 / rc=crf / crf=17.0 / qcomp=0.65 / qpstep=4 / stats-write=0 / stats-read=0 / vbv-maxrate=80000 / vbv-bufsize=80000 / vbv-init=0.9 / crf-max=0.0 / crf-min=0.0 / ipratio=1.40 / pbratio=1.30 / aq-mode=2 / aq-strength=0.85 / cutree / zone-count=0 / no-strict-cbr / qg-size=32 / no-rc-grain / qpmax=69 / qpmin=0 / no-const-vbv / sar=1 / overscan=0 / videoformat=5 / range=0 / colorprim=1 / transfer=1 / colormatrix=1 / chromaloc=0 / display-window=0 / cll=0,0 / min-luma=0 / max-luma=1023 / log2-max-poc-lsb=8 / vui-timing-info / vui-hrd-info / slices=1 / no-opt-qp-pps / no-opt-ref-list-length-pps / no-multi-pass-opt-rps / scenecut-bias=0.05 / hist-threshold=0.01 / no-opt-cu-delta-qp / no-aq-motion / no-hdr10 / no-hdr10-opt / no-dhdr10-opt / no-idr-recovery-sei / analysis-reuse-level=0 / analysis-save-reuse-level=0 / analysis-load-reuse-level=0 / scale-factor=0 / refine-intra=0 / refine-inter=0 / refine-mv=1 / refine-ctu-distortion=0 / no-limit-sao / ctu-info=0 / no-lowpass-dct / refine-analysis-type=0 / copy-pic=1 / max-ausize-factor=1.0 / no-dynamic-refine / no-single-sei / no-hevc-aq / no-svt / no-field / qp-adaptation-range=1.00 / no-scenecut-aware-qpconformance-window-offsets / right=0 / bottom=0 / NTMzNTQ=

  35. Language : English

  36. Default : Yes

  37. Forced : No

  38. Color range : Limited

  39. Color primaries : BT.709

  40. Transfer characteristics : BT.709

  41. Matrix coefficients : BT.709

  42. Audio #1

  43. ID : 2

  44. Format : MLP FBA

  45. Format/Info : Meridian Lossless Packing FBA

  46. Commercial name : Dolby TrueHD

  47. Codec ID : A_TRUEHD

  48. Duration : 2 h 11 min

  49. Bit rate mode : Variable

  50. Bit rate : 1 650 kb/s

  51. Maximum bit rate : 3 069 kb/s

  52. Channel(s) : 6 channels

  53. Channel layout : L R C LFE Ls Rs

  54. Sampling rate : 48.0 kHz

  55. Frame rate : 1 200.000 FPS (40 SPF)

  56. Compression mode : Lossless

  57. Stream size : 1.51 GiB (14%)

  58. Title : English Dolby TrueHD 5.1 @ 1650 kbps

  59. Language : English

  60. Default : Yes

  61. Forced : No

  62. Audio #2

  63. ID : 3

  64. Format : AC-3

  65. Format/Info : Audio Coding 3

  66. Commercial name : Dolby Digital

  67. Codec ID : A_AC3

  68. Duration : 2 h 11 min

  69. Bit rate mode : Constant

  70. Bit rate : 640 kb/s

  71. Channel(s) : 6 channels

  72. Channel layout : L R C LFE Ls Rs

  73. Sampling rate : 48.0 kHz

  74. Frame rate : 31.250 FPS (1536 SPF)

  75. Compression mode : Lossy

  76. Stream size : 600 MiB (5%)

  77. Title : English Dolby Digital Audio 5.1 @ 640 kbps

  78. Language : English

  79. Service kind : Complete Main

  80. Default : No

  81. Forced : No

  82. Audio #3

  83. ID : 4

  84. Format : AC-3

  85. Format/Info : Audio Coding 3

  86. Commercial name : Dolby Digital

  87. Codec ID : A_AC3

  88. Duration : 2 h 11 min

  89. Bit rate mode : Constant

  90. Bit rate : 192 kb/s

  91. Channel(s) : 2 channels

  92. Channel layout : L R

  93. Sampling rate : 48.0 kHz

  94. Frame rate : 31.250 FPS (1536 SPF)

  95. Compression mode : Lossy

  96. Stream size : 180 MiB (2%)

  97. Title : English Dolby Digital Audio 2.0 @ 192 kbps Commentary

  98. Language : English

  99. Service kind : Complete Main

  100. Default : No

  101. Forced : No

  102. Text #1

  103. ID : 5

  104. Format : PGS

  105. Codec ID : S_HDMV/PGS

  106. Codec ID/Info : Picture based subtitle format used on BDs/HD-DVDs

  107. Duration : 2 h 0 min

  108. Bit rate : 32.8 kb/s

  109. Count of elements : 3073

  110. Stream size : 28.2 MiB (0%)

  111. Title : Eng/SUP

  112. Language : English

  113. Default : No

  114. Forced : No

  115. Text #2

  116. ID : 6

  117. Format : PGS

  118. Codec ID : S_HDMV/PGS

  119. Codec ID/Info : Picture based subtitle format used on BDs/HD-DVDs

  120. Duration : 2 h 1 min

  121. Bit rate : 34.5 kb/s

  122. Count of elements : 3277

  123. Stream size : 30.0 MiB (0%)

  124. Title : Eng/SUP SDH

  125. Language : English

  126. Default : No

  127. Forced : No

  128. Text #3

  129. ID : 7

  130. Format : PGS

  131. Codec ID : S_HDMV/PGS

  132. Codec ID/Info : Picture based subtitle format used on BDs/HD-DVDs

  133. Duration : 2 h 0 min

  134. Bit rate : 18.5 kb/s

  135. Count of elements : 2929

  136. Stream size : 16.0 MiB (0%)

  137. Title : Chs/SUP 原盘简体

  138. Language : Chinese

  139. Default : Yes

  140. Forced : No

  141. Text #4

  142. ID : 8

  143. Format : PGS

  144. Codec ID : S_HDMV/PGS

  145. Codec ID/Info : Picture based subtitle format used on BDs/HD-DVDs

  146. Duration : 2 h 1 min

  147. Bit rate : 22.4 kb/s

  148. Count of elements : 2934

  149. Stream size : 19.4 MiB (0%)

  150. Title : Cht/SUP 原盘繁体

  151. Language : Chinese

  152. Default : No

  153. Forced : No

  154. Text #5

  155. ID : 9

  156. Format : PGS

  157. Codec ID : S_HDMV/PGS

  158. Codec ID/Info : Picture based subtitle format used on BDs/HD-DVDs

  159. Duration : 2 h 5 min

  160. Bit rate : 45.0 kb/s

  161. Count of elements : 5158

  162. Stream size : 40.2 MiB (0%)

  163. Title : Chs/SUP 原盘简体 Commentary

  164. Language : Chinese

  165. Default : No

  166. Forced : No

  167. Text #6

  168. ID : 10

  169. Format : PGS

  170. Codec ID : S_HDMV/PGS

  171. Codec ID/Info : Picture based subtitle format used on BDs/HD-DVDs

  172. Duration : 2 h 5 min

  173. Bit rate : 46.7 kb/s

  174. Count of elements : 5180

  175. Stream size : 41.8 MiB (0%)

  176. Title : Cht/SUP 原盘繁体 Commentary

  177. Language : Chinese

  178. Default : No

  179. Forced : No

  180. Menu

  181. 00:00:00.000 : en:第 01 章

  182. 00:06:36.229 : en:第 02 章

  183. 00:22:20.339 : en:第 03 章

  184. 00:28:49.269 : en:第 04 章

  185. 00:31:15.290 : en:第 05 章

  186. 00:35:44.517 : en:第 06 章

  187. 00:45:52.667 : en:第 07 章

  188. 00:54:27.973 : en:第 08 章

  189. 01:01:07.706 : en:第 09 章

  190. 01:07:02.685 : en:第 10 章

  191. 01:16:54.610 : en:第 11 章

  192. 01:24:06.458 : en:第 12 章

  193. 01:28:21.671 : en:第 13 章

  194. 01:34:20.822 : en:第 14 章

  195. 01:38:31.989 : en:第 15 章

  196. 01:49:42.576 : en:第 16 章

  197. 01:53:26.383 : en:第 17 章

  198. 01:57:22.452 : en:第 18 章

  199. 02:01:43.379 : en:第 19 章


复制代码



文件下载


除非特别注明,本文『国家宝藏[共2部合集][简繁英字幕].National.Treasure.1-2.2004-2007.BluRay.1080p.TrueHD.5.1.x265.10bit-ALT 23.30GB』来源于互联网机器人自动抓取,非本站原创。 浮游电影网不对本文拥有版权,如有侵犯,请联系邮箱:fuyouu#yandex.com[#换成@]投诉。我们会在15个工作日内删除。 但烦请转载时请标明出处:“本文转载于『浮游电影网』,原文地址:https://www.fuyouu.com/21373.html

评论吧骚年!

发表你的见解   

昵称*

E-mail*(建议输入,以便收到博主回复的提示邮件)

验证码*

您可以使用eMule或eMule Mod(Windows)、aMule(Win、Linux、Mac)等软件下载eD2k链接。。
eMule收藏集(.emulecollection)文件是您选中的所有链接的列表文件。eMule可以直接下载它们。
按住SHIFT键选择可以选中多个选择框。
可用文件名和大小选择器来选择文件。
文件名选择器帮您根据文件名称或后缀来选择文件。不分大小写。
符号使用:
和:空格( )、+
不包含:-
或:|
转义:一对英文引号("");
匹配开头:^
匹配结尾:$
例如:
选中所有名称中包含有“eMule”或“0.49c”字眼,但不包含有“exe”字眼的:emule|0.49c -exe
选中所有名称的开头是“eMule”,结尾是“0.49c”的:^emule 0.49c$
选中所有名称中带有“eMule 0.49c”的(必须是“eMule 0.49c”,中间没有别的字符,不能是“eMule fake 0.49c”),需要转义:"emule 0.49c"
大小选择器帮您根据文件大小选择文件。