当前位置: 首页 >> 动画电影 >> 花木兰[共2部合集][国粤英多音轨/繁英字幕].Mulan.1-2.1998-2004.BluRay.1080p.MultiAudio.DTS-HD.MA.5.1.x265.10bit-ALT 10. >> 正文

花木兰[共2部合集][国粤英多音轨/繁英字幕].Mulan.1-2.1998-2004.BluRay.1080p.MultiAudio.DTS-HD.MA.5.1.x265.10bit-ALT 10.

2022年04月15日 14:01:07     电影发布:来源于网络     电影分类:动画电影     评论(0)    

花木兰[共2部合集][国粤英多音轨/繁英字幕].Mulan.1 2.1998 2004.BluRay.1080p.MultiAudio.DTS HD.MA.5.1.x265.10bit ALT 10.  动画电影  第1张

◎译 名 花木兰 / 木兰 / China Doll / The Legend of Mulan

◎片 名 Mulan

◎年 代 1998

◎产 地 美国

◎类 别 剧情 / 动画 / 家庭 / 冒险

◎语 言 英语

◎上映日期 1998-06-19(美国)

◎IMDb链接 https://www.imdb.com/title/tt0120762/

◎豆瓣评分 7.9/10 (221957人评价)

◎豆瓣链接 https://movie.douban.com/subject/1294833/

◎片 长 88分钟

◎导 演 巴里·库克 Barry Cook (id:1281185)

托尼·班克罗夫特 Tony Bancroft (id:1277815)

◎编 剧 萧丽塔 Rita Hsiao (id:1287032)

克里斯·桑德斯 Chris Sanders (id:1032241)

克里斯·威廉姆斯 Chris Williams (id:1300949)

艾伦·奥姆斯比 Alan Ormsby (id:1293631)

菲利普·拉泽布尼克 Philip LaZebnik (id:1289578)

罗娜·库克 Lorna Cook (id:1281200)

伯尼·马丁森 Burny Mattinson (id:1291311)

大卫·雷诺兹 David Reynolds (id:1295520)

杰夫·斯诺 Jeff Snow (id:1297979)

约翰·桑福德 John Sanford (id:1302130)

汤姆·恩里克斯 Thom Enriquez (id:1283231)

尼娅·波斯威克-辛格 Eugenia Bostwick-Singer (id:1279040)

罗伯特·D·圣苏西 Robert D. San Souci (id:1385037)

◎演 员 温明娜 Ming-Na Wen (id:1041128)

艾迪·墨菲 Eddie Murphy (id:1002672)

黄荣亮 B.D. Wong (id:1054808)

哈维·费斯特恩 Harvey Fierstein (id:1017976)

米盖尔·弗尔 Miguel Ferrer (id:1007021)

吴汉章 James Hong (id:1031824)

成龙 Jackie Chan (id:1054531)

许晴 Qing Xu (id:1005268)

陈佩斯 Peisi Chen (id:1280571)

丽娅·萨隆加 Lea Salonga (id:1032098)

詹姆斯·繁田 James Shigeta (id:1143689)

胡立成 Licheng Hu (id:1331134)

党同义 Tongyi Dang (id:1328421)

田二喜 Erxi Tian (id:1321267)

弗雷达·福斯·沈 Freda Foh Shen (id:1385038)

路易莎·莱斯金 Luisa Leschin (id:1289839)

帕姆·科茨 Pam Coats (id:1280932)

杰瑞·高德史密斯 Jerry Goldsmith (id:1007116)

迈克尔·凯利 Michael Kelly (id:1288350)

露丝·兰伯特 Ruth Lambert (id:1289321)

里克·斯勒伊特 Ric Sluiter (id:1297800)

汉斯·巴切尔 Hans Bacher (id:1277663)

马克·丹菲特 Mark Dornfeld (id:1282612)

毛罗·玛莎莎 Mauro Maressa (id:1290974)

鲍勃·班尼特 Bob Bennett (id:1278364)

马龙·韦斯特 Marlon West (id:1302136)

加勒特·雷恩 Garrett Wren (id:1309049)

保罗·A·费利克斯 Paul A. Felix (id:1283549)

张振益 Chen-Yi Chang (id:1280461)

◎简 介

花木兰是家中的长女,性格爽朗率真,父母极力想帮女儿找到一个好归宿,可是多次努力未果。此时却收到了北方匈奴侵略的消息,朝廷召集各家各户的壮丁。木兰父亲也在名单之内,木兰不忍年迈残疾的父亲征战沙场,决定割掉长发,偷走父亲的盔甲,决定女扮男装代父从军。花家的祖先为了保护木兰,便派出了心地善良的木须从旁帮忙。从军的过程中,木兰凭着坚强意志,通过了一关又一关的艰苦训练,她的精神也感动了所有战友。就在战况告急的时候,她也被发现了女子的身份。她被遗留在雪地中,而最后也是她的及时出现,顺利协助大军击退了匈奴。

◎获奖情况 (共14项)

第71届奥斯卡金像奖 (1999)

音乐/喜剧片最佳原创配乐(提名)

第56届金球奖 (1999)

电影类 最佳原创配乐(提名)

└──杰瑞·高德史密斯 (id:1007116)

电影类 最佳原创歌曲(提名)

第26届动画安妮奖 (1998)

最佳动画长片

最佳导演

最佳编剧

最佳女配音

└──温明娜 (id:1041128)

最佳配乐

最佳制作

└──帕姆·科茨 (id:1280932)

最佳分镜

└──克里斯·桑德斯 (id:1032241)

最佳艺术指导

└──汉斯·巴切尔 (id:1277663)

最佳动画角色

└──鲁本·A·阿奎罗 (id:1277337)

最佳动画角色(提名)

最佳动画效果

  1. 合集文件列表:

  2. 1.Mulan.2.2004.BluRay.1080p.3Audio.DTS-HD.MA.5.1.x265.10bit-ALT.mkv 4.69GB

  3. 2.Mulan.1998.BluRay.1080p.MultiAudio.DTS-HD.MA.5.1.x265.10bit-ALT.mkv 6.20GB


复制代码

  1. ##### MediaInfo ######

  2. General

  3. Unique ID : 23000024102967000675983082443904152758 (0x114DA4BD57F2A4FD13231E3E218074B6)

  4. Complete name : Mulan.2.2004.BluRay.1080p.3Audio.DTS-HD.MA.5.1.x265.10bit-BeiTai.mkv

  5. Format : Matroska

  6. Format version : Version 4

  7. File size : 4.69 GiB

  8. Duration : 1 h 18 min

  9. Overall bit rate mode : Variable

  10. Overall bit rate : 8 525 kb/s

  11. Encoded date : UTC 2020-09-24 05:59:41

  12. Writing application : mkvmerge v48.0.0 ('Fortress Around Your Heart') 64-bit

  13. Writing library : libebml v1.4.0 + libmatroska v1.6.0

  14. Video

  15. ID : 1

  16. Format : HEVC

  17. Format/Info : High Efficiency Video Coding

  18. Format profile : Main [email protected]@High

  19. Codec ID : V_MPEGH/ISO/HEVC

  20. Duration : 1 h 18 min

  21. Bit rate : 3 668 kb/s

  22. Width : 1 920 pixels

  23. Height : 1 080 pixels

  24. Display aspect ratio : 16:9

  25. Frame rate mode : Constant

  26. Frame rate : 23.976 (24000/1001/53354) FPS

  27. Color space : YUV

  28. Chroma subsampling : 4:2:0

  29. Bit depth : 10 bits

  30. Bits/(Pixel*Frame) : 0.074

  31. Stream size : 2.02 GiB (43%)

  32. Title : HEVC, [email protected]@High, 24/1.001 fps @ 3668 kbps

  33. Writing library : x265 3.3+1-g396395b2b:[Windows][GCC 9.2.0][64 bit] 10bit

  34. Encoding settings : cpuid=533541111039 / frame-threads=4 / numa-pools=16 / wpp / pmode / pme / no-psnr / no-ssim / log-level=2 / input-csp=1 / input-res=1920x1080 / interlace=0 / total-frames=113212 / level-idc=51 / high-tier=1 / uhd-bd=0 / ref=5 / no-allow-non-conformance / no-repeat-headers / annexb / no-aud / no-hrd / info / hash=0 / no-temporal-layers / open-gop / min-keyint=24 / keyint=240 / gop-lookahead=0 / bframes=6 / b-adapt=2 / b-pyramid / bframe-bias=0 / rc-lookahead=40 / lookahead-slices=0 / NTMzNTQ=uuDQuD2mJt9fsCf / scenecut=40 / hist-scenecut=0 / radl=0 / no-splice / no-intra-refresh / ctu=32 / min-cu-size=8 / no-rect / no-amp / max-tu-size=32 / tu-inter-depth=3 / tu-intra-depth=3 / limit-tu=4 / rdoq-level=2 / dynamic-rd=0.00 / no-ssim-rd / signhide / no-tskip / nr-intra=0 / nr-inter=0 / no-constrained-intra / no-strong-intra-smoothing / max-merge=4 / limit-refs=1 / limit-modes / me=3 / subme=4 / merange=25 / temporal-mvp / no-frame-dup / no-hme / weightp / weightb / no-analyze-src-pics / deblock=-3:-3 / no-sao / no-sao-non-deblock / rd=6 / selective-sao=0 / no-early-skip / rskip / no-fast-intra / no-tskip-fast / no-cu-lossless / b-intra / no-splitrd-skip / rdpenalty=0 / psy-rd=2.00 / psy-rdoq=1.00 / no-rd-refine / no-lossless / cbqpoffs=0 / crqpoffs=0 / rc=crf / crf=17.0 / qcomp=0.65 / qpstep=4 / stats-write=0 / stats-read=0 / vbv-maxrate=80000 / vbv-bufsize=80000 / vbv-init=0.9 / crf-max=0.0 / crf-min=0.0 / ipratio=1.40 / pbratio=1.30 / aq-mode=2 / aq-strength=0.85 / cutree / zone-count=0 / no-strict-cbr / qg-size=32 / no-rc-grain / qpmax=69 / qpmin=0 / no-const-vbv / sar=1 / overscan=0 / videoformat=5 / range=0 / colorprim=1 / transfer=1 / colormatrix=1 / chromaloc=0 / display-window=0 / cll=0,0 / min-luma=0 / max-luma=1023 / log2-max-poc-lsb=8 / vui-timing-info / vui-hrd-info / slices=1 / no-opt-qp-pps / no-opt-ref-list-length-pps / no-multi-pass-opt-rps / scenecut-bias=0.05 / hist-threshold=0.01 / no-opt-cu-delta-qp / no-aq-motion / no-hdr10 / no-hdr10-opt / no-dhdr10-opt / no-idr-recovery-sei / analysis-reuse-level=0 / analysis-save-reuse-level=0 / analysis-load-reuse-level=0 / scale-factor=0 / refine-intra=0 / refine-inter=0 / refine-mv=1 / refine-ctu-distortion=0 / no-limit-sao / ctu-info=0 / no-lowpass-dct / refine-analysis-type=0 / copy-pic=1 / max-ausize-factor=1.0 / no-dynamic-refine / no-single-sei / no-hevc-aq / no-svt / no-field / qp-adaptation-range=1.00 / no-scenecut-aware-qpconformance-window-offsets / right=0 / bottom=0 / NTMzNTQ=

  35. Language : English

  36. Default : Yes

  37. Forced : No

  38. Color range : Limited

  39. Color primaries : BT.709

  40. Transfer characteristics : BT.709

  41. Matrix coefficients : BT.709

  42. Audio #1

  43. ID : 2

  44. Format : DTS XLL

  45. Format/Info : Digital Theater Systems

  46. Commercial name : DTS-HD Master Audio

  47. Codec ID : A_DTS

  48. Duration : 1 h 18 min

  49. Bit rate mode : Variable

  50. Bit rate : 3 971 kb/s

  51. Channel(s) : 6 channels

  52. Channel layout : C L R Ls Rs LFE

  53. Sampling rate : 48.0 kHz

  54. Frame rate : 93.750 FPS (512 SPF)

  55. Bit depth : 24 bits

  56. Compression mode : Lossless

  57. Stream size : 2.18 GiB (47%)

  58. Title : English DTS-HD Master Audio 5.1 @ 3971 kbps

  59. Language : English

  60. Default : No

  61. Forced : No

  62. Audio #2

  63. ID : 3

  64. Format : AC-3

  65. Format/Info : Audio Coding 3

  66. Commercial name : Dolby Digital

  67. Codec ID : A_AC3

  68. Duration : 1 h 18 min

  69. Bit rate mode : Constant

  70. Bit rate : 384 kb/s

  71. Channel(s) : 6 channels

  72. Channel layout : L R C LFE Ls Rs

  73. Sampling rate : 48.0 kHz

  74. Frame rate : 31.250 FPS (1536 SPF)

  75. Compression mode : Lossy

  76. Stream size : 216 MiB (5%)

  77. Title : Mandarin Dolby Digital Audio 5.1 @ 384 kbps 台配国语

  78. Language : Chinese

  79. Service kind : Complete Main

  80. Default : Yes

  81. Forced : No

  82. Audio #3

  83. ID : 4

  84. Format : AC-3

  85. Format/Info : Audio Coding 3

  86. Commercial name : Dolby Digital

  87. Codec ID : A_AC3

  88. Duration : 1 h 18 min

  89. Bit rate mode : Constant

  90. Bit rate : 384 kb/s

  91. Channel(s) : 6 channels

  92. Channel layout : L R C LFE Ls Rs

  93. Sampling rate : 48.0 kHz

  94. Frame rate : 31.250 FPS (1536 SPF)

  95. Compression mode : Lossy

  96. Stream size : 216 MiB (5%)

  97. Title : Cantonese Dolby Digital Audio 5.1 @ 384 kbps 粵语

  98. Language : Chinese

  99. Service kind : Complete Main

  100. Default : No

  101. Forced : No

  102. Text #1

  103. ID : 5

  104. Format : PGS

  105. Codec ID : S_HDMV/PGS

  106. Codec ID/Info : Picture based subtitle format used on BDs/HD-DVDs

  107. Duration : 1 h 12 min

  108. Bit rate : 42.1 kb/s

  109. Count of elements : 2188

  110. Stream size : 22.0 MiB (0%)

  111. Title : Eng/SUP

  112. Language : English

  113. Default : No

  114. Forced : No

  115. Text #2

  116. ID : 6

  117. Format : PGS

  118. Codec ID : S_HDMV/PGS

  119. Codec ID/Info : Picture based subtitle format used on BDs/HD-DVDs

  120. Duration : 1 h 13 min

  121. Bit rate : 39.2 kb/s

  122. Count of elements : 1978

  123. Stream size : 20.5 MiB (0%)

  124. Title : Cht/SUP 对应英语繁体

  125. Language : Chinese

  126. Default : No

  127. Forced : No

  128. Text #3

  129. ID : 7

  130. Format : PGS

  131. Codec ID : S_HDMV/PGS

  132. Codec ID/Info : Picture based subtitle format used on BDs/HD-DVDs

  133. Duration : 1 h 13 min

  134. Bit rate : 41.6 kb/s

  135. Count of elements : 2092

  136. Stream size : 21.7 MiB (0%)

  137. Title : Cht/SUP 对应台配国语繁体

  138. Language : Chinese

  139. Default : Yes

  140. Forced : No

  141. Menu

  142. 00:00:00.000 : en:00:00:00.000

  143. 00:03:12.317 : en:00:03:12.317

  144. 00:08:30.844 : en:00:08:30.844

  145. 00:12:12.023 : en:00:12:12.023

  146. 00:14:15.354 : en:00:14:15.354

  147. 00:17:16.202 : en:00:17:16.202

  148. 00:19:57.196 : en:00:19:57.196

  149. 00:25:07.089 : en:00:25:07.089

  150. 00:31:51.660 : en:00:31:51.660

  151. 00:38:00.570 : en:00:38:00.570

  152. 00:42:18.953 : en:00:42:18.953

  153. 00:51:12.945 : en:00:51:12.945

  154. 01:02:08.725 : en:01:02:08.725

  155. 01:04:57.977 : en:01:04:57.977

  156. 01:10:14.043 : en:01:10:14.043

  157. 01:13:23.774 : en:01:13:23.774


复制代码



文件下载


除非特别注明,本文『花木兰[共2部合集][国粤英多音轨/繁英字幕].Mulan.1-2.1998-2004.BluRay.1080p.MultiAudio.DTS-HD.MA.5.1.x265.10bit-ALT 10.』来源于互联网机器人自动抓取,非本站原创。 浮游电影网不对本文拥有版权,如有侵犯,请联系邮箱:fuyouu#yandex.com[#换成@]投诉。我们会在15个工作日内删除。 但烦请转载时请标明出处:“本文转载于『浮游电影网』,原文地址:https://www.fuyouu.com/21372.html

评论吧骚年!

发表你的见解   

昵称*

E-mail*(建议输入,以便收到博主回复的提示邮件)

验证码*

您可以使用eMule或eMule Mod(Windows)、aMule(Win、Linux、Mac)等软件下载eD2k链接。。
eMule收藏集(.emulecollection)文件是您选中的所有链接的列表文件。eMule可以直接下载它们。
按住SHIFT键选择可以选中多个选择框。
可用文件名和大小选择器来选择文件。
文件名选择器帮您根据文件名称或后缀来选择文件。不分大小写。
符号使用:
和:空格( )、+
不包含:-
或:|
转义:一对英文引号("");
匹配开头:^
匹配结尾:$
例如:
选中所有名称中包含有“eMule”或“0.49c”字眼,但不包含有“exe”字眼的:emule|0.49c -exe
选中所有名称的开头是“eMule”,结尾是“0.49c”的:^emule 0.49c$
选中所有名称中带有“eMule 0.49c”的(必须是“eMule 0.49c”,中间没有别的字符,不能是“eMule fake 0.49c”),需要转义:"emule 0.49c"
大小选择器帮您根据文件大小选择文件。