当前位置: 首页 >> 日韩电影 >> 孩子[中文字幕].I.2021.1080p.WEB-DL.H264.AAC-HDBWEB 3.41GB >> 正文

孩子[中文字幕].I.2021.1080p.WEB-DL.H264.AAC-HDBWEB 3.41GB

2022年04月15日 13:47:14     电影发布:来源于网络     电影分类:日韩电影     评论(0)    

孩子[中文字幕].I.2021.1080p.WEB DL.H264.AAC HDBWEB 3.41GB  日韩电影  第1张

◎译 名 孩子 / 孩子别哭(台)

◎片 名 ??

◎年 代 2021

◎产 地 韩国

◎类 别 剧情

◎语 言 韩语

◎上映日期 2021-02-10(韩国)

◎IMDb链接 https://www.imdb.com/title/tt14891034/

◎豆瓣评分 6.7/10 (351人评价)

◎豆瓣链接 https://movie.douban.com/subject/35079551/

◎片 长 113分钟

◎导 演 金贤卓 Kim Hyuntak (id:1449885)

◎编 剧 金贤卓 Kim Hyuntak (id:1449885)

◎演 员 金香起 Hyang-ki Kim (id:1276094)

柳贤静 Hyeon-kyeong Ryu (id:1034234)

廉惠兰 Yum Hye-ran (id:1378885)

尹正勋 Yoon Jung-hoon (id:1447544)

朴玉出 Ok-chool Park (id:1453610)

朴艺荣 Park Ye Young (id:1453699)

金贤穆 Kim Hyun-mok (id:1386242)

李秀彬 Soo-bin Lee (id:1342552)

李妍京 Lee Yun-kyung (id:1378864)

郑秀智 Soo-ji Jung (id:1449853)

姜吉宇 Kang Gil Woo (id:1461806)

◎简 介

讲述了即将毕业于儿童专业的大学生“阿英”(金香起 饰)成为独自养育6个月大孩子的“英彩”(柳贤静 饰)家的保姆后的温馨故事。

  1. ##### MediaInfo ######

  2. General

  3. Complete name : 孩子別哭.I.2021.1080p.WEB-DL.H264.AAC-OurTV.mp4

  4. Format : MPEG-4

  5. Format profile : Base Media

  6. Codec ID : isom (isom/iso2/avc1/mp41)

  7. File size : 3.41 GiB

  8. Duration : 1 h 52 min

  9. Overall bit rate : 4 335 kb/s

  10. Writing application : Lavf58.20.100

  11. Video

  12. ID : 1

  13. Format : AVC

  14. Format/Info : Advanced Video Codec

  15. Format profile : [email protected]

  16. Format settings : CABAC / 3 Ref Frames

  17. Format settings, CABAC : Yes

  18. Format settings, Reference frames : 3 frames

  19. Format settings, GOP : M=1, N=60

  20. Codec ID : avc1

  21. Codec ID/Info : Advanced Video Coding

  22. Duration : 1 h 52 min

  23. Bit rate : 3 986 kb/s

  24. Width : 1 920 pixels

  25. Height : 1 080 pixels

  26. Display aspect ratio : 16:9

  27. Frame rate mode : Variable

  28. Frame rate : 29.970 FPS

  29. Minimum frame rate : 29.412 FPS

  30. Maximum frame rate : 30.303 FPS

  31. Color space : YUV

  32. Chroma subsampling : 4:2:0

  33. Bit depth : 8 bits

  34. Scan type : Progressive

  35. Bits/(Pixel*Frame) : 0.064

  36. Stream size : 3.14 GiB (92%)

  37. Codec configuration box : avcC

  38. Audio

  39. ID : 2

  40. Format : AAC LC

  41. Format/Info : Advanced Audio Codec Low Complexity

  42. Codec ID : mp4a-40-2

  43. Duration : 1 h 52 min

  44. Bit rate mode : Constant

  45. Bit rate : 339 kb/s

  46. Channel(s) : 6 channels

  47. Channel layout : C L R Ls Rs LFE

  48. Sampling rate : 48.0 kHz

  49. Frame rate : 46.875 FPS (1024 SPF)

  50. Compression mode : Lossy

  51. Stream size : 273 MiB (8%)

  52. Default : Yes

  53. Alternate group : 1


复制代码



文件下载


除非特别注明,本文『孩子[中文字幕].I.2021.1080p.WEB-DL.H264.AAC-HDBWEB 3.41GB』来源于互联网机器人自动抓取,非本站原创。 浮游电影网不对本文拥有版权,如有侵犯,请联系邮箱:fuyouu#yandex.com[#换成@]投诉。我们会在15个工作日内删除。 但烦请转载时请标明出处:“本文转载于『浮游电影网』,原文地址:https://www.fuyouu.com/21362.html

评论吧骚年!

发表你的见解   

昵称*

E-mail*(建议输入,以便收到博主回复的提示邮件)

验证码*

您可以使用eMule或eMule Mod(Windows)、aMule(Win、Linux、Mac)等软件下载eD2k链接。。
eMule收藏集(.emulecollection)文件是您选中的所有链接的列表文件。eMule可以直接下载它们。
按住SHIFT键选择可以选中多个选择框。
可用文件名和大小选择器来选择文件。
文件名选择器帮您根据文件名称或后缀来选择文件。不分大小写。
符号使用:
和:空格( )、+
不包含:-
或:|
转义:一对英文引号("");
匹配开头:^
匹配结尾:$
例如:
选中所有名称中包含有“eMule”或“0.49c”字眼,但不包含有“exe”字眼的:emule|0.49c -exe
选中所有名称的开头是“eMule”,结尾是“0.49c”的:^emule 0.49c$
选中所有名称中带有“eMule 0.49c”的(必须是“eMule 0.49c”,中间没有别的字符,不能是“eMule fake 0.49c”),需要转义:"emule 0.49c"
大小选择器帮您根据文件大小选择文件。