当前位置: 首页 >> 欧美电影 >> 最后华尔兹[简繁英字幕].The.Last.Waltz.1978.2160p.HDR.UHD.BluRay.DTS-HD.MA.5.1.x265-10bit-ENTHD 15.24GB >> 正文

最后华尔兹[简繁英字幕].The.Last.Waltz.1978.2160p.HDR.UHD.BluRay.DTS-HD.MA.5.1.x265-10bit-ENTHD 15.24GB

2022年04月15日 13:42:29     电影发布:来源于网络     电影分类:欧美电影     评论(0)    

最后华尔兹[简繁英字幕].The.Last.Waltz.1978.2160p.HDR.UHD.BluRay.DTS HD.MA.5.1.x265 10bit ENTHD 15.24GB  欧美电影  第1张

◎译 名 最后华尔兹

◎片 名 The Last Waltz

◎年 代 1978

◎产 地 美国

◎类 别 纪录片 / 音乐

◎语 言 英语 / 中古英语

◎上映日期 1978-04-26

◎IMDb链接 https://www.imdb.com/title/tt0077838/

◎豆瓣评分 8.7/10 (1207人评价)

◎豆瓣链接 https://movie.douban.com/subject/1306025/

◎片 长 117分钟

◎导 演 马丁·斯科塞斯 Martin Scorsese (id:1054425)

◎编 剧 麦迪克·马丁 Mardik Martin (id:1291128)

马丁·斯科塞斯 Martin Scorsese (id:1054425)

◎演 员 Rick Danko Rick Danko (id:1081812)

列翁·赫尔姆 Levon Helm (id:1100870)

Garth Hudson Garth Hudson (id:1096781)

Richard Manuel Richard Manuel (id:1116290)

罗比·罗伯逊 Robbie Robertson (id:1009700)

埃里克·克莱普顿 Eric Clapton (id:1000333)

尼尔·戴蒙德 Neil Diamond (id:1004906)

鲍勃·迪伦 Bob Dylan (id:1018072)

乔尼·米切尔 Joni Mitchell (id:1120166)

尼尔·杨 Neil Young (id:1165350)

爱美萝·哈里斯 Emmylou Harris (id:1055087)

林戈·斯塔尔 Ringo Starr (id:1009413)

Paul Butterfield Paul Butterfield (id:1069442)

Dr. John Dr. John (id:1041644)

范·莫里森 Van Morrison (id:1050200)

Ronnie Hawkins Ronnie Hawkins (id:1098121)

Muddy Waters Muddy Waters (id:1167707)

荣·伍德 Ron Wood (id:1166176)

Michael McClure Michael McClure (id:1118259)

劳伦斯·弗林盖蒂 Lawrence Ferlinghetti (id:1001768)

马丁·斯科塞斯 Martin Scorsese (id:1054425)

汤姆·马龙 Tom Malone (id:1120690)

Howard Johnson Howard Johnson (id:1113567)

杰里·海 Jerry Hey (id:1286558)

Mavis Staples Mavis Staples (id:1159622)

Roebuck 'Pops' Staples Roebuck 'Pops' Staples (id:1156950)

Robert Charles Guidry Robert Charles Guidry (id:1212659)

比尔·格雷厄姆 Bill Graham (id:1014697)

派恩塔普·帕金斯 Pinetop Perkins (id:1128123)

Carl Radle Carl Radle (id:1143451)

罗比·罗伯逊 Robbie Robertson (id:1009700)

弗兰克·马歇尔 Frank Marshall (id:1049939)

乔尔·切尔诺夫 Joel Chernoff (id:1024518)

L·A·约翰逊 L.A. Johnson (id:1019885)

Jonathan T. Taplin Jonathan T. Taplin (id:1011012)

迈克尔·查普曼 Michael Chapman (id:1075517)

鲍里斯·莱文 Boris Leven (id:1025651)

安东尼·蒙戴尔 Anthony Mondell (id:1292331)

迪昂·哈奇 Dion Hatch (id:1286215)

◎简 介

本片是美国摇滚乐队“THE BAND"在三藩市作告别演出音乐会的纪录片。 片中的大腕实在太多了。

马丁.史高塞斯的导演手法出色,在把握节奏、色彩运用方面掌握得非常有尺度;鲍里斯.李文的摄影技术也是炉火纯青,使得本片成为摇滚乐纪录片的代表作之一。

  1. ##### MediaInfo ######

  2. General

  3. Unique ID : 223441926098884167984910441796269769971 (0xA8195981631758F27DC7DCFB561404F3)

  4. Complete name : The.Last.Waltz.1978.2160p.HDR.UHD.BluRay.DTS-HD.MA.5.1.x265-10bit-HDS.mkv

  5. Format : Matroska

  6. Format version : Version 4

  7. File size : 15.2 GiB

  8. Duration : 1 h 57 min

  9. Overall bit rate mode : Variable

  10. Overall bit rate : 18.6 Mb/s

  11. Movie name : The Last Waltz 1978 2160p HDR UHD BluRay DTS-HD MA 5.1 x265-10bit-HDS

  12. Encoded date : UTC 2022-04-13 11:37:30

  13. Writing application : mkvmerge v67.0.0 ('Under Stars') 64-bit

  14. Writing library : libebml v1.4.2 + libmatroska v1.6.4

  15. Video

  16. ID : 1

  17. Format : HEVC

  18. Format/Info : High Efficiency Video Coding

  19. Format profile : Main [email protected]@High

  20. HDR format : SMPTE ST 2086, HDR10 compatible

  21. Codec ID : V_MPEGH/ISO/HEVC

  22. Duration : 1 h 57 min

  23. Bit rate : 14.1 Mb/s

  24. Width : 3 840 pixels

  25. Height : 2 080 pixels

  26. Display aspect ratio : 1.85:1

  27. Frame rate mode : Constant

  28. Frame rate : 23.976 (24000/1001/53354) FPS

  29. Color space : YUV

  30. Chroma subsampling : 4:2:0 (Type 2)

  31. Bit depth : 10 bits

  32. Bits/(Pixel*Frame) : 0.073

  33. Stream size : 11.5 GiB (76%)

  34. Title : @HDSky

  35. Writing library : x265 3.5+12+14-106329cbd:[Windows][GCC 10.3.0][64 bit] 10bit

  36. Encoding settings : cpuid=533541111039 / frame-threads=6 / numa-pools=32 / wpp / no-pmode / no-pme / no-psnr / no-ssim / log-level=2 / input-csp=1 / input-res=3840x2080 / interlace=0 / total-frames=168599 / level-idc=0 / high-tier=1 / uhd-bd=0 / ref=4 / no-allow-non-conformance / repeat-headers / annexb / aud / no-eob / no-eos / hrd / info / hash=0 / no-temporal-layers / open-gop / min-keyint=1 / keyint=280 / gop-lookahead=0 / bframes=6 / b-adapt=2 / b-pyramid / bframe-bias=0 / rc-lookahead=60 / lookahead-slices=8 / NTMzNTQ=uuDQuD2mJt9fsCf / scenecut=40 / no-hist-scenecut / radl=0 / no-splice / no-intra-refresh / ctu=32 / min-cu-size=8 / no-rect / no-amp / max-tu-size=32 / tu-inter-depth=1 / tu-intra-depth=1 / limit-tu=0 / rdoq-level=0 / dynamic-rd=0.00 / no-ssim-rd / signhide / no-tskip / nr-intra=0 / nr-inter=0 / no-constrained-intra / strong-intra-smoothing / max-merge=3 / limit-refs=1 / no-limit-modes / me=3 / subme=5 / merange=24 / temporal-mvp / no-frame-dup / no-hme / weightp / weightb / no-analyze-src-pics / deblock=0:0 / sao / no-sao-non-deblock / rd=3 / selective-sao=4 / early-skip / rskip / no-fast-intra / no-tskip-fast / no-cu-lossless / b-intra / no-splitrd-skip / rdpenalty=0 / psy-rd=2.00 / psy-rdoq=0.00 / no-rd-refine / no-lossless / cbqpoffs=-2 / crqpoffs=-2 / rc=crf / crf=24.5 / qcomp=0.65 / qpstep=4 / stats-write=0 / stats-read=0 / vbv-maxrate=160000 / vbv-bufsize=160000 / vbv-init=0.9 / min-vbv-fullness=50.0 / max-vbv-fullness=80.0 / crf-max=0.0 / crf-min=0.0 / ipratio=1.40 / pbratio=1.30 / aq-mode=2 / aq-strength=0.90 / no-cutree / zone-count=0 / no-strict-cbr / qg-size=8 / no-rc-grain / qpmax=69 / qpmin=0 / no-const-vbv / sar=0 / overscan=0 / videoformat=5 / range=0 / colorprim=9 / transfer=16 / colormatrix=9 / chromaloc=1 / chromaloc-top=2 / chromaloc-bottom=2 / display-window=0 / master-display=G(8500,39850)B(6550,2300)R(35400,14600)WP(15635,16450)L(10000000,1) / cll=902,58 / min-luma=0 / max-luma=1023 / log2-max-poc-lsb=8 / vui-timing-info / vui-hrd-info / slices=1 / no-opt-qp-pps / no-opt-ref-list-length-pps / no-multi-pass-opt-rps / scenecut-bias=0.05 / hist-threshold=0.03 / no-opt-cu-delta-qp / no-aq-motion / hdr10 / no-hdr10-opt / no-dhdr10-opt / no-idr-recovery-sei / analysis-reuse-level=0 / analysis-save-reuse-level=0 / analysis-load-reuse-level=0 / scale-factor=0 / refine-intra=0 / refine-inter=0 / refine-mv=1 / refine-ctu-distortion=0 / no-limit-sao / ctu-info=0 / no-lowpass-dct / refine-analysis-type=0 / copy-pic=1 / max-ausize-factor=1.0 / no-dynamic-refine / no-single-sei / no-hevc-aq / no-svt / no-field / qp-adaptation-range=1.00 / scenecut-aware-qp=0 / conformance-window-right-offset=0 / conformance-window-bottom-offset=0 / decoder-max-rate=0 / no-vbv-live-multi-pass

  37. Default : Yes

  38. Forced : No

  39. Color range : Limited

  40. Color primaries : BT.2020

  41. Transfer characteristics : PQ

  42. Matrix coefficients : BT.2020 non-constant

  43. Mastering display color primaries : BT.2020

  44. Mastering display luminance : min: 0.0001 cd/m2, max: 1000 cd/m2

  45. Maximum Content Light Level : 902 cd/m2

  46. Maximum Frame-Average Light Level : 58 cd/m2

  47. Audio

  48. ID : 2

  49. Format : DTS XLL

  50. Format/Info : Digital Theater Systems

  51. Commercial name : DTS-HD Master Audio

  52. Codec ID : A_DTS

  53. Duration : 1 h 57 min

  54. Bit rate mode : Variable

  55. Bit rate : 4 540 kb/s

  56. Channel(s) : 6 channels

  57. Channel layout : C L R Ls Rs LFE

  58. Sampling rate : 48.0 kHz

  59. Frame rate : 93.750 FPS (512 SPF)

  60. Bit depth : 24 bits

  61. Compression mode : Lossless

  62. Stream size : 3.72 GiB (24%)

  63. Title : English

  64. Language : English

  65. Default : Yes

  66. Forced : No

  67. Text #1

  68. ID : 3

  69. Format : PGS

  70. Muxing mode : zlib

  71. Codec ID : S_HDMV/PGS

  72. Codec ID/Info : Picture based subtitle format used on BDs/HD-DVDs

  73. Duration : 1 h 56 min

  74. Bit rate : 41.5 kb/s

  75. Count of elements : 2398

  76. Stream size : 34.5 MiB (0%)

  77. Title : ENG

  78. Language : English

  79. Default : Yes

  80. Forced : No

  81. Text #2

  82. ID : 4

  83. Format : PGS

  84. Muxing mode : zlib

  85. Codec ID : S_HDMV/PGS

  86. Codec ID/Info : Picture based subtitle format used on BDs/HD-DVDs

  87. Duration : 1 h 50 min

  88. Bit rate : 5 743 b/s

  89. Count of elements : 648

  90. Stream size : 4.54 MiB (0%)

  91. Title : CHS

  92. Language : Chinese

  93. Default : Yes

  94. Forced : No

  95. Text #3

  96. ID : 5

  97. Format : PGS

  98. Muxing mode : zlib

  99. Codec ID : S_HDMV/PGS

  100. Codec ID/Info : Picture based subtitle format used on BDs/HD-DVDs

  101. Duration : 1 h 50 min

  102. Bit rate : 5 920 b/s

  103. Count of elements : 648

  104. Stream size : 4.68 MiB (0%)

  105. Title : CHT

  106. Language : Chinese

  107. Default : Yes

  108. Forced : No

  109. Menu

  110. 00:00:00.000 : en:第 01 章

  111. 00:04:09.541 : en:第 02 章

  112. 00:07:45.298 : en:第 03 章

  113. 00:11:30.189 : en:第 04 章

  114. 00:16:00.877 : en:第 05 章

  115. 00:20:09.959 : en:第 06 章

  116. 00:26:47.189 : en:第 07 章

  117. 00:30:29.911 : en:第 08 章

  118. 00:36:07.457 : en:第 09 章

  119. 00:40:25.423 : en:第 10 章

  120. 00:46:06.472 : en:第 11 章

  121. 00:51:26.959 : en:第 12 章

  122. 00:56:48.655 : en:第 13 章

  123. 01:03:46.990 : en:第 14 章

  124. 01:08:05.373 : en:第 15 章

  125. 01:13:39.790 : en:第 16 章

  126. 01:18:48.682 : en:第 17 章

  127. 01:24:45.497 : en:第 18 章

  128. 01:30:28.423 : en:第 19 章

  129. 01:37:04.318 : en:第 20 章

  130. 01:46:06.777 : en:第 21 章

  131. 01:51:05.868 : en:第 22 章


复制代码



文件下载


除非特别注明,本文『最后华尔兹[简繁英字幕].The.Last.Waltz.1978.2160p.HDR.UHD.BluRay.DTS-HD.MA.5.1.x265-10bit-ENTHD 15.24GB』来源于互联网机器人自动抓取,非本站原创。 浮游电影网不对本文拥有版权,如有侵犯,请联系邮箱:fuyouu#yandex.com[#换成@]投诉。我们会在15个工作日内删除。 但烦请转载时请标明出处:“本文转载于『浮游电影网』,原文地址:https://www.fuyouu.com/21361.html

评论吧骚年!

发表你的见解   

昵称*

E-mail*(建议输入,以便收到博主回复的提示邮件)

验证码*

您可以使用eMule或eMule Mod(Windows)、aMule(Win、Linux、Mac)等软件下载eD2k链接。。
eMule收藏集(.emulecollection)文件是您选中的所有链接的列表文件。eMule可以直接下载它们。
按住SHIFT键选择可以选中多个选择框。
可用文件名和大小选择器来选择文件。
文件名选择器帮您根据文件名称或后缀来选择文件。不分大小写。
符号使用:
和:空格( )、+
不包含:-
或:|
转义:一对英文引号("");
匹配开头:^
匹配结尾:$
例如:
选中所有名称中包含有“eMule”或“0.49c”字眼,但不包含有“exe”字眼的:emule|0.49c -exe
选中所有名称的开头是“eMule”,结尾是“0.49c”的:^emule 0.49c$
选中所有名称中带有“eMule 0.49c”的(必须是“eMule 0.49c”,中间没有别的字符,不能是“eMule fake 0.49c”),需要转义:"emule 0.49c"
大小选择器帮您根据文件大小选择文件。