当前位置: 首页 >> 日韩电影 >> 寄生灵[中文字幕].Ghastly.2011.1080p.HAMI.WEB-DL.AAC2.0.x264-CTRLWEB 3.18GB >> 正文

寄生灵[中文字幕].Ghastly.2011.1080p.HAMI.WEB-DL.AAC2.0.x264-CTRLWEB 3.18GB

2022年04月15日 13:37:08     电影发布:来源于网络     电影分类:日韩电影     评论(0)    

寄生灵[中文字幕].Ghastly.2011.1080p.HAMI.WEB DL.AAC2.0.x264 CTRLWEB 3.18GB  日韩电影  第1张

◎译 名 寄生灵 / Ghastly

◎片 名 ???

◎年 代 2011

◎产 地 韩国

◎类 别 剧情 / 惊悚 / 恐怖

◎语 言 韩语

◎上映日期 2011-08-04(韩国)

◎IMDb链接 https://www.imdb.com/title/tt2095647/

◎豆瓣评分 5.9/10 (3502人评价)

◎豆瓣链接 https://movie.douban.com/subject/6147186/

◎片 长 77分钟

◎导 演 高锡祯 Ko Seok-jin (id:1320967)

梁允豪 Yun-ho Yang (id:1042595)

◎编 剧 金永泰 Kim Yoo-ra (id:1397372)

◎演 员 韩多感 Dagam Han (id:1011303)

朴善英 Seon-yeong Park (id:1024749)

鲁敏宇 Minue (id:1275398)

朴孝敏 Hyomin Park (id:1317714)

李宥珠 Yoo-joo Lee (id:1448118)

金镇成 Jin-seong Kim (id:1456945)

许正范 Jung-bum Heo (id:1456946)

张允瑞 Yoon-seo Jang (id:1425494)

李炯锡 Hyung-Suk Lee (id:1397373)

崔旭 Wook Choi (id:1456990)

咸恩静 Eun-jeong Ham (id:1313036)

白秀莲 Su-ryun Baek (id:1350443)

黄智贤 Ji-Hyun Hwang (id:1350302)

金圭丽 Gyu-ri Kim (id:1023764)

朴惠珍 Hye-jin Park (id:1456991)

金永泰 Kim Yoo-ra (id:1397372)

梁允豪 Yun-ho Yang (id:1042595)

◎简 介

阴森恐怖之夜,单身妈妈崔嘉姬神情恍惚飘渺,以极其残忍的方式结束了自己的性命,只留下可怜的小男孩小斌(李亨硕 饰)独自面对未知的世界。由于联系不上其他直系亲属,小斌被交由他的叔叔徐长焕抚养。为了照顾从天而降的侄子,徐带着怀孕的妻子金瑞妮(韩恩贞 饰)以及瑞妮还在上学的妹妹由琳住进了小斌的家中。但是厄运似乎并未随着嘉姬的死而结束,反而愈演愈烈。瑞妮和由琳接连遭遇奇怪的事件,小斌也时常显露出诡异恐怖的表情。而他家中那个被封闭的仓库里,显然隐藏着不可告人的秘密。

恐怖的恶灵四处逡巡,徐长焕一家陷入万劫不复的境地……

  1. ##### MediaInfo ######

  2. General

  3. Complete name : Ghastly.2011.1080p.HAMI.WEB-DL.AAC2.0.x264-CHDWEB.mp4

  4. Format : MPEG-4

  5. Format profile : Base Media

  6. Codec ID : isom (isom/iso2/avc1/mp41)

  7. File size : 3.17 GiB

  8. Duration : 1 h 17 min

  9. Overall bit rate mode : Variable

  10. Overall bit rate : 5 895 kb/s

  11. Recorded date : 2022-04-13T20:40:09.1001299+08:00

  12. Writing application : Lavf59.16.100

  13. Video

  14. ID : 1

  15. Format : AVC

  16. Format/Info : Advanced Video Codec

  17. Format profile : [email protected]

  18. Format settings : CABAC / 3 Ref Frames

  19. Format settings, CABAC : Yes

  20. Format settings, Reference frames : 3 frames

  21. Format settings, GOP : M=1, N=30

  22. Codec ID : avc1

  23. Codec ID/Info : Advanced Video Coding

  24. Duration : 1 h 17 min

  25. Bit rate : 5 824 kb/s

  26. Width : 1 920 pixels

  27. Height : 1 080 pixels

  28. Display aspect ratio : 16:9

  29. Frame rate mode : Constant

  30. Frame rate : 30.000 FPS

  31. Color space : YUV

  32. Chroma subsampling : 4:2:0

  33. Bit depth : 8 bits

  34. Scan type : Progressive

  35. Bits/(Pixel*Frame) : 0.094

  36. Stream size : 3.14 GiB (99%)

  37. Writing library : x264 core 152 r2851 ba24899

  38. Encoding settings : cabac=1 / ref=3 / deblock=1:0:0 / analyse=0x3:0x113 / me=hex / subme=7 / psy=1 / psy_rd=1.00:0.00 / mixed_ref=1 / me_range=16 / chroma_me=1 / trellis=1 / 8x8dct=1 / cqm=0 / deadzone=21,11 / fast_pskip=1 / chroma_qp_offset=-2 / threads=34 / lookahead_threads=5 / sliced_threads=0 / nr=0 / decimate=1 / interlaced=0 / NTMzNTQ= / bluray_compat=0 / constrained_intra=0 / bframes=0 / weightp=2 / keyint=30 / keyint_min=16 / scenecut=0 / intra_refresh=0 / rc_lookahead=30 / rc=abr / mbtree=1 / bitrate=5872 / ratetol=1.0 / qcomp=0.60 / qpmin=0 / qpmax=69 / qpstep=4 / vbv_maxrate=5900 / vbv_bufsize=5872 / nal_hrd=none / filler=0 / NTMzNTQ=LmsMAP37EqsCpk / ip_ratio=1.40 / aq=1:1.00

  39. Codec configuration box : avcC

  40. Audio

  41. ID : 2

  42. Format : AAC LC

  43. Format/Info : Advanced Audio Codec Low Complexity

  44. Codec ID : mp4a-40-2

  45. Duration : 1 h 17 min

  46. Bit rate mode : Variable

  47. Bit rate : 64.6 kb/s

  48. Maximum bit rate : 66.5 kb/s / 66.5 kb/s

  49. Channel(s) : 2 channels

  50. Channel layout : L R

  51. Sampling rate : 48.0 kHz

  52. Frame rate : 46.875 FPS (1024 SPF)

  53. Compression mode : Lossy

  54. Stream size : 35.6 MiB (1%)

  55. Language : English

  56. Default : Yes

  57. Alternate group : 1


复制代码




文件下载


除非特别注明,本文『寄生灵[中文字幕].Ghastly.2011.1080p.HAMI.WEB-DL.AAC2.0.x264-CTRLWEB 3.18GB』来源于互联网机器人自动抓取,非本站原创。 浮游电影网不对本文拥有版权,如有侵犯,请联系邮箱:fuyouu#yandex.com[#换成@]投诉。我们会在15个工作日内删除。 但烦请转载时请标明出处:“本文转载于『浮游电影网』,原文地址:https://www.fuyouu.com/21357.html

评论吧骚年!

发表你的见解   

昵称*

E-mail*(建议输入,以便收到博主回复的提示邮件)

验证码*

您可以使用eMule或eMule Mod(Windows)、aMule(Win、Linux、Mac)等软件下载eD2k链接。。
eMule收藏集(.emulecollection)文件是您选中的所有链接的列表文件。eMule可以直接下载它们。
按住SHIFT键选择可以选中多个选择框。
可用文件名和大小选择器来选择文件。
文件名选择器帮您根据文件名称或后缀来选择文件。不分大小写。
符号使用:
和:空格( )、+
不包含:-
或:|
转义:一对英文引号("");
匹配开头:^
匹配结尾:$
例如:
选中所有名称中包含有“eMule”或“0.49c”字眼,但不包含有“exe”字眼的:emule|0.49c -exe
选中所有名称的开头是“eMule”,结尾是“0.49c”的:^emule 0.49c$
选中所有名称中带有“eMule 0.49c”的(必须是“eMule 0.49c”,中间没有别的字符,不能是“eMule fake 0.49c”),需要转义:"emule 0.49c"
大小选择器帮您根据文件大小选择文件。