当前位置: 首页 >> 国产电影 >> 我是证人[国语配音/中文字幕].The.Witness.2015.2160p.WEB-DL.H265.AAC-CTRLWEB 2.57GB >> 正文

我是证人[国语配音/中文字幕].The.Witness.2015.2160p.WEB-DL.H265.AAC-CTRLWEB 2.57GB

2022年04月15日 13:33:21     电影发布:来源于网络     电影分类:国产电影     评论(0)    

我是证人[国语配音/中文字幕].The.Witness.2015.2160p.WEB DL.H265.AAC CTRLWEB 2.57GB  国产电影  第1张

◎译 名 我是证人 / 盲证 / 盲 / The Witness / ????

◎年 代 2015

◎产 地 中国大陆 / 韩国

◎类 别 剧情 / 悬疑 / 犯罪

◎语 言 汉语普通话

◎上映日期 2015-10-30(中国大陆)

◎IMDb链接 https://www.imdb.com/title/tt4979652/

◎豆瓣评分 6.3/10 (174152人评价)

◎豆瓣链接 https://movie.douban.com/subject/26313973/

◎片 长 112分钟

◎导 演 安相勋 Sang-hoon Ahn (id:1331100)

◎编 剧 顾小白 Xiaobai Gu (id:1320930)

安相勋 Sang-hoon Ahn (id:1331100)

尹昌业 Andy Yoon (id:1351552)

崔民硕 Min-seok Choi (id:1331111)

◎演 员 杨幂 Mi Yang (id:1052359)

鹿晗 Han Lu (id:1337001)

王景春 Jingchun Wang (id:1275934)

朱亚文 Yawen Zhu (id:1312699)

刘芮麟 Wayne Liu (id:1339588)

赖艺 Yi Lai (id:1351258)

柴蔚 Wei Chai (id:1327159)

李溪芮 Sierra Li (id:1340376)

沈樵 Qiao Shen (id:1435137)

许龄月 Amelie Xu (id:1354409)

李晨 Chen Li (id:1274252)

潘小样 Xiaoyang Pan (id:1354269)

高琛 Chen Gao (id:1382321)

Won-ho Son Won-ho Son (id:1450043)

许多 Xu Duo (id:1460863)

◎简 介

路小星(杨幂 饰)是一位初出茅庐的见习女警,她的弟弟死于一场意外,而作为见证人的路小星则双目失明。尽管失去了视觉,但路小星的其他感官却因此而意外的活跃起来,即便生活在黑暗之中,路小星却依旧能够敏感的感受到周遭的一举一动。

一场车祸中,路小星成为了目击者,凭借着自己的特殊能力,她做出了证词,路小星绝佳的感官和记忆力吸引了老刑警鲁力(王景春 饰)的注意。林冲(鹿晗 饰)是车祸的另一位目击者,可奇怪的是,他所做出的证词恰恰和路小星的证词截然不同。一个是五感健全的普通人,一个是双目失明的盲人,究竟应该相信谁的证词?而又是谁在撒谎呢?

  1. ##### MediaInfo ######

  2. General

  3. Complete name : The.Witness.2015.2160p.WEB-DL.H265.AAC-CHDWEB.mp4

  4. Format : MPEG-4

  5. Format profile : Base Media

  6. Codec ID : isom (isom/iso2/mp41)

  7. File size : 2.57 GiB

  8. Duration : 1 h 51 min

  9. Overall bit rate mode : Variable

  10. Overall bit rate : 3 295 kb/s

  11. Recorded date : 2022-04-12T13:21:54.4089116+08:00

  12. Writing application : Lavf59.16.100

  13. Video

  14. ID : 1

  15. Format : HEVC

  16. Format/Info : High Efficiency Video Coding

  17. Format profile : [email protected]@Main

  18. Codec ID : hev1

  19. Codec ID/Info : High Efficiency Video Coding

  20. Duration : 1 h 51 min

  21. Bit rate : 3 164 kb/s

  22. Width : 3 840 pixels

  23. Height : 1 616 pixels

  24. Display aspect ratio : 2.40:1

  25. Frame rate mode : Constant

  26. Frame rate : 25.000 FPS

  27. Color space : YUV

  28. Chroma subsampling : 4:2:0

  29. Bit depth : 8 bits

  30. Bits/(Pixel*Frame) : 0.020

  31. Stream size : 2.47 GiB (96%)

  32. Codec configuration box : hvcC

  33. Audio

  34. ID : 2

  35. Format : AAC LC

  36. Format/Info : Advanced Audio Codec Low Complexity

  37. Codec ID : mp4a-40-2

  38. Duration : 1 h 51 min

  39. Bit rate mode : Variable

  40. Bit rate : 124 kb/s

  41. Maximum bit rate : 127 kb/s / 127 kb/s

  42. Channel(s) : 2 channels

  43. Channel layout : L R

  44. Sampling rate : 44.1 kHz

  45. Frame rate : 43.066 FPS (1024 SPF)

  46. Compression mode : Lossy

  47. Stream size : 99.4 MiB (4%)

  48. Default : Yes

  49. Alternate group : 1


复制代码



文件下载


除非特别注明,本文『我是证人[国语配音/中文字幕].The.Witness.2015.2160p.WEB-DL.H265.AAC-CTRLWEB 2.57GB』来源于互联网机器人自动抓取,非本站原创。 浮游电影网不对本文拥有版权,如有侵犯,请联系邮箱:fuyouu#yandex.com[#换成@]投诉。我们会在15个工作日内删除。 但烦请转载时请标明出处:“本文转载于『浮游电影网』,原文地址:https://www.fuyouu.com/21353.html

评论吧骚年!

发表你的见解   

昵称*

E-mail*(建议输入,以便收到博主回复的提示邮件)

验证码*

您可以使用eMule或eMule Mod(Windows)、aMule(Win、Linux、Mac)等软件下载eD2k链接。。
eMule收藏集(.emulecollection)文件是您选中的所有链接的列表文件。eMule可以直接下载它们。
按住SHIFT键选择可以选中多个选择框。
可用文件名和大小选择器来选择文件。
文件名选择器帮您根据文件名称或后缀来选择文件。不分大小写。
符号使用:
和:空格( )、+
不包含:-
或:|
转义:一对英文引号("");
匹配开头:^
匹配结尾:$
例如:
选中所有名称中包含有“eMule”或“0.49c”字眼,但不包含有“exe”字眼的:emule|0.49c -exe
选中所有名称的开头是“eMule”,结尾是“0.49c”的:^emule 0.49c$
选中所有名称中带有“eMule 0.49c”的(必须是“eMule 0.49c”,中间没有别的字符,不能是“eMule fake 0.49c”),需要转义:"emule 0.49c"
大小选择器帮您根据文件大小选择文件。