当前位置: 首页 >> 国产电影 >> 七月半3:灵触第七感[国语配音/中文字幕].Spirit.Touch.Seventh.Sense.2017.2160p.WEB-DL.H265.AAC-CTRLWEB 4.65GB >> 正文

七月半3:灵触第七感[国语配音/中文字幕].Spirit.Touch.Seventh.Sense.2017.2160p.WEB-DL.H265.AAC-CTRLWEB 4.65GB

2022年04月15日 13:32:07     电影发布:来源于网络     电影分类:国产电影     评论(0)    

七月半3:灵触第七感[国语配音/中文字幕].Spirit.Touch.Seventh.Sense.2017.2160p.WEB DL.H265.AAC CTRLWEB 4.65GB  国产电影  第1张

◎译 名 七月半3:灵触第七感 / 七月半3 / 灵触第七感 / 七月半之灵触第七感 / Spirit Touch Seventh Sense

◎年 代 2017

◎产 地 中国大陆

◎类 别 恐怖

◎语 言 汉语普通话

◎上映日期 2017-11-24(中国大陆)

◎IMDb链接 https://www.imdb.com/title//

◎豆瓣评分 2.2/10 (484人评价)

◎豆瓣链接 https://movie.douban.com/subject/26830660/

◎片 长 83分钟

◎导 演 王栎昂 Yue`ang Wang (id:1323524)

◎演 员 施景子 Jingzi Shi (id:1384722)

罗翔 Xiang Luo (id:1341569)

苗青 Qing Miao (id:1353664)

赵吉 Ji Zhao (id:1354465)

曾漪涟 Yilian Zeng (id:1384723)

唐翊源 Liyuan Tang (id:1384724)

宋睿 Rui Song (id:1329270)

王栎昂 Yue`ang Wang (id:1323524)

李飞 Fei Li (id:1458136)

◎简 介

19世纪末期,美国探险家麦克在中国鲁南泰沂山脉的丛林深处,发现了一块上古时期神秘的黑色陨石。一百多年后,某大学探险社团成员在茂密森林度假,大二女生苏洛意外地发现了装在铅盒中的黑石,当她打开这个盒子时,一连串神秘诡异事情接踵而至,身边好友一连串的离奇死亡让苏洛几近崩溃,这块触发了苏洛“第七感”的神秘的黑石,是来自上古的诅咒,还是来自外太空更高的科技?社团的成员被困于噩梦般的神秘而又恐怖的境地,永无止境的恐惧深渊等待着他们......

  1. ##### MediaInfo ######

  2. General

  3. Complete name : Spirit.Touch.Seventh.Sense.2017.2160p.WEB-DL.H265.AAC-CHDWEB.mp4

  4. Format : MPEG-4

  5. Format profile : Base Media

  6. Codec ID : isom (isom/iso2/mp41)

  7. File size : 4.65 GiB

  8. Duration : 1 h 18 min

  9. Overall bit rate : 8 505 kb/s

  10. Recorded date : 2022-04-09T14:42:51.4263420+08:00

  11. Writing application : Lavf59.16.100

  12. Video

  13. ID : 1

  14. Format : HEVC

  15. Format/Info : High Efficiency Video Coding

  16. Format profile : [email protected]@Main

  17. Codec ID : hev1

  18. Codec ID/Info : High Efficiency Video Coding

  19. Duration : 1 h 18 min

  20. Bit rate : 8 307 kb/s

  21. Width : 3 840 pixels

  22. Height : 1 632 pixels

  23. Display aspect ratio : 2.35:1

  24. Frame rate mode : Constant

  25. Frame rate : 25.000 FPS

  26. Color space : YUV

  27. Chroma subsampling : 4:2:0

  28. Bit depth : 8 bits

  29. Bits/(Pixel*Frame) : 0.053

  30. Stream size : 4.54 GiB (98%)

  31. Codec configuration box : hvcC

  32. Audio

  33. ID : 2

  34. Format : AAC LC

  35. Format/Info : Advanced Audio Codec Low Complexity

  36. Codec ID : mp4a-40-2

  37. Duration : 1 h 18 min

  38. Bit rate mode : Constant

  39. Bit rate : 192 kb/s

  40. Channel(s) : 2 channels

  41. Channel layout : L R

  42. Sampling rate : 44.1 kHz

  43. Frame rate : 43.066 FPS (1024 SPF)

  44. Compression mode : Lossy

  45. Stream size : 106 MiB (2%)

  46. Default : Yes

  47. Alternate group : 1


复制代码



文件下载


除非特别注明,本文『七月半3:灵触第七感[国语配音/中文字幕].Spirit.Touch.Seventh.Sense.2017.2160p.WEB-DL.H265.AAC-CTRLWEB 4.65GB』来源于互联网机器人自动抓取,非本站原创。 浮游电影网不对本文拥有版权,如有侵犯,请联系邮箱:fuyouu#yandex.com[#换成@]投诉。我们会在15个工作日内删除。 但烦请转载时请标明出处:“本文转载于『浮游电影网』,原文地址:https://www.fuyouu.com/21352.html

评论吧骚年!

发表你的见解   

昵称*

E-mail*(建议输入,以便收到博主回复的提示邮件)

验证码*

您可以使用eMule或eMule Mod(Windows)、aMule(Win、Linux、Mac)等软件下载eD2k链接。。
eMule收藏集(.emulecollection)文件是您选中的所有链接的列表文件。eMule可以直接下载它们。
按住SHIFT键选择可以选中多个选择框。
可用文件名和大小选择器来选择文件。
文件名选择器帮您根据文件名称或后缀来选择文件。不分大小写。
符号使用:
和:空格( )、+
不包含:-
或:|
转义:一对英文引号("");
匹配开头:^
匹配结尾:$
例如:
选中所有名称中包含有“eMule”或“0.49c”字眼,但不包含有“exe”字眼的:emule|0.49c -exe
选中所有名称的开头是“eMule”,结尾是“0.49c”的:^emule 0.49c$
选中所有名称中带有“eMule 0.49c”的(必须是“eMule 0.49c”,中间没有别的字符,不能是“eMule fake 0.49c”),需要转义:"emule 0.49c"
大小选择器帮您根据文件大小选择文件。