当前位置: 首页 >> 日韩电影 >> 灵异咒[中文字幕].Noroi.2005.1080p.HAMI.WEB-DL.AAC2.0.x264-CTRLWEB 4.71GB >> 正文

灵异咒[中文字幕].Noroi.2005.1080p.HAMI.WEB-DL.AAC2.0.x264-CTRLWEB 4.71GB

2022年04月15日 13:30:14     电影发布:来源于网络     电影分类:日韩电影     评论(0)    

灵异咒[中文字幕].Noroi.2005.1080p.HAMI.WEB DL.AAC2.0.x264 CTRLWEB 4.71GB  日韩电影  第1张

◎译 名 灵异咒 / 诅咒

◎片 名 ノロイ

◎年 代 2005

◎产 地 日本

◎类 别 恐怖

◎语 言 日语

◎上映日期 2005-08-20

◎IMDb链接 https://www.imdb.com/title/tt0930083/

◎豆瓣评分 7.2/10 (9287人评价)

◎豆瓣链接 https://movie.douban.com/subject/1979068/

◎片 长 115 分钟

◎导 演 白石晃士 K?ji Shiraishi (id:1319439)

◎编 剧 森田直幸 Naoyuki Morita (id:1010331)

◎演 员 Jin Muraki (id:1244910)

菅野莉央 Rio Kanno (id:1029074)

松本真理香 Marika Matsumoto (id:1330387)

荒俣宏 Hiroshi Aramata (id:1427212)

长宗我部阳子 Y?ko Ch?sokabe (id:1034375)

饭岛爱 Ai Iijima (id:1051232)

高树玛利亚 Maria Takagi (id:1275327)

◎简 介

某日,东京一处房屋失火,房屋主人小林雅文(村木仁 饰)生不见人,死不见尸。小林是一名怪奇作家,他经常到传言闹鬼的地方体验采访,著书立作,同时还是一名电台灵异节目的主持人。他的失踪引起人们广泛猜测,而其留下的DV素材则称为寻找其下落的关键所在。

录像带中,小林曾拜访过一位中年妇女石井潤子(久我朋乃 饰),石井声称在隔壁经常能够听到婴儿的哭声,而那户人家根本没有小孩。在采访结束后不久,石井遭遇车祸身亡。小林坚信这起事故背后另有隐情,他由此展开更为深入的调查。然而调查越深入,离奇诡异的事件越来越多,而恐怖的真相也渐渐浮出水面……

  1. ##### MediaInfo ######

  2. General

  3. Unique ID : 315430265765297267665724832803271646918 (0xED4DA8CFC57EE89FE6FAD64E75329EC6)

  4. Complete name : Noroi.2005.1080p.HAMI.WEB-DL.AAC2.0.x264-CHDWEB.mkv

  5. Format : Matroska

  6. Format version : Version 4

  7. File size : 4.71 GiB

  8. Duration : 1 h 54 min

  9. Overall bit rate : 5 877 kb/s

  10. Encoded date : UTC 2022-04-13 02:25:34

  11. Writing application : mkvmerge v63.0.0 ('Everything') 64-bit

  12. Writing library : libebml v1.4.2 + libmatroska v1.6.4

  13. Video

  14. ID : 1

  15. Format : AVC

  16. Format/Info : Advanced Video Codec

  17. Format profile : [email protected]

  18. Format settings : CABAC / 3 Ref Frames

  19. Format settings, CABAC : Yes

  20. Format settings, Reference frames : 3 frames

  21. Format settings, GOP : M=1, N=30

  22. Codec ID : V_MPEG4/ISO/AVC

  23. Duration : 1 h 54 min

  24. Bit rate : 5 872 kb/s

  25. Width : 1 920 pixels

  26. Height : 1 080 pixels

  27. Display aspect ratio : 16:9

  28. Frame rate mode : Constant

  29. Frame rate : 29.970 (29970/1000/53354) FPS

  30. Color space : YUV

  31. Chroma subsampling : 4:2:0

  32. Bit depth : 8 bits

  33. Scan type : Progressive

  34. Bits/(Pixel*Frame) : 0.094

  35. Stream size : 4.61 GiB (98%)

  36. Writing library : x264 core 157 r2935 545de2f

  37. Encoding settings : cabac=1 / ref=3 / deblock=1:0:0 / analyse=0x3:0x113 / me=hex / subme=7 / psy=1 / psy_rd=1.00:0.00 / mixed_ref=1 / me_range=16 / chroma_me=1 / trellis=1 / 8x8dct=1 / cqm=0 / deadzone=21,11 / fast_pskip=1 / chroma_qp_offset=-2 / threads=34 / lookahead_threads=5 / sliced_threads=0 / nr=0 / decimate=1 / interlaced=0 / NTMzNTQ= / bluray_compat=0 / constrained_intra=0 / bframes=0 / weightp=2 / keyint=30 / keyint_min=16 / scenecut=0 / intra_refresh=0 / rc_lookahead=30 / rc=abr / mbtree=1 / bitrate=5872 / ratetol=1.0 / qcomp=0.60 / qpmin=0 / qpmax=69 / qpstep=4 / vbv_maxrate=5900 / vbv_bufsize=5872 / nal_hrd=none / filler=0 / NTMzNTQ=LmsMAP37EqsCpk / ip_ratio=1.40 / aq=1:1.00

  38. Language : Japanese

  39. Default : Yes

  40. Forced : No

  41. Audio

  42. ID : 2

  43. Format : AAC LC

  44. Format/Info : Advanced Audio Codec Low Complexity

  45. Codec ID : A_AAC-2

  46. Duration : 1 h 54 min

  47. Bit rate : 127 kb/s

  48. Channel(s) : 2 channels

  49. Channel layout : L R

  50. Sampling rate : 48.0 kHz

  51. Frame rate : 46.875 FPS (1024 SPF)

  52. Compression mode : Lossy

  53. Stream size : 105 MiB (2%)

  54. Language : Japanese

  55. Default : Yes

  56. Forced : No


复制代码



文件下载


除非特别注明,本文『灵异咒[中文字幕].Noroi.2005.1080p.HAMI.WEB-DL.AAC2.0.x264-CTRLWEB 4.71GB』来源于互联网机器人自动抓取,非本站原创。 浮游电影网不对本文拥有版权,如有侵犯,请联系邮箱:fuyouu#yandex.com[#换成@]投诉。我们会在15个工作日内删除。 但烦请转载时请标明出处:“本文转载于『浮游电影网』,原文地址:https://www.fuyouu.com/21350.html

评论吧骚年!

发表你的见解   

昵称*

E-mail*(建议输入,以便收到博主回复的提示邮件)

验证码*

您可以使用eMule或eMule Mod(Windows)、aMule(Win、Linux、Mac)等软件下载eD2k链接。。
eMule收藏集(.emulecollection)文件是您选中的所有链接的列表文件。eMule可以直接下载它们。
按住SHIFT键选择可以选中多个选择框。
可用文件名和大小选择器来选择文件。
文件名选择器帮您根据文件名称或后缀来选择文件。不分大小写。
符号使用:
和:空格( )、+
不包含:-
或:|
转义:一对英文引号("");
匹配开头:^
匹配结尾:$
例如:
选中所有名称中包含有“eMule”或“0.49c”字眼,但不包含有“exe”字眼的:emule|0.49c -exe
选中所有名称的开头是“eMule”,结尾是“0.49c”的:^emule 0.49c$
选中所有名称中带有“eMule 0.49c”的(必须是“eMule 0.49c”,中间没有别的字符,不能是“eMule fake 0.49c”),需要转义:"emule 0.49c"
大小选择器帮您根据文件大小选择文件。