当前位置: 首页 >> 日韩电影 >> 我很幸福[简体字幕].I.Am.Happy.2008.1080p.WEB-DL.AAC2.0.H.264-CTRLWEB 4.04GB >> 正文

我很幸福[简体字幕].I.Am.Happy.2008.1080p.WEB-DL.AAC2.0.H.264-CTRLWEB 4.04GB

2022年04月15日 13:26:43     电影发布:来源于网络     电影分类:日韩电影     评论(0)    

我很幸福[简体字幕].I.Am.Happy.2008.1080p.WEB DL.AAC2.0.H.264 CTRLWEB 4.04GB 剧情 日韩电影  第1张

◎译 名 我很幸福 / 我是幸福的 / I Am Happy

◎片 名 ?? ?????

◎年 代 2008

◎产 地 韩国

◎类 别 剧情

◎语 言 韩语

◎上映日期 2008-10-10

◎IMDb链接 https://www.imdb.com/title/tt1588369/

◎豆瓣评分 6.8/10 (1363人评价)

◎豆瓣链接 https://movie.douban.com/subject/3221641/

◎导 演 尹宗灿 Jong-chan Yun (id:1302840)

◎编 剧 尹宗灿 Jong-chan Yun (id:1302840)

李清俊 Chung-Joon Lee (id:1415003)

◎演 员 玄彬 Hyun Bin (id:1028380)

李宝英 Bo-young Lee (id:1015002)

崔旭 Wook Choi (id:1456990)

金弘波 Hong-Fa Kim (id:1353736)

崔钟律 Jong-ryeol Choi (id:1395341)

金基天 Ki-cheon Kim (id:1339796)

韩恩善 Eun-sun Han (id:1387365)

朴胜泰 Seung-tae Park (id:1383979)

李润健 Lee Yoon-gun (id:1385235)

朴英徐 Yeong-seo Park (id:1458414)

◎简 介

周满秀(玄彬 饰)的母亲患有阿兹海默症,靠着在理发店打工获得的微薄收入,周满秀艰难的维系着和母亲一起相依为命的生活。周满秀的哥哥是个一掷千金的赌徒,每当囊中羞涩之时,他都会找到弟弟,伸手要钱,而善良的周满秀即便是四处筹借,也要满足哥哥的要求。

一场意外让周满秀发了疯,被送入了精神病院,在这里,周满秀是自己所创造的世界里的百万富翁。照顾周满秀的是一位名叫秀景(李宝英 饰)的护士,她的身世也十分可怜,父亲身患重病,家中负债累累。随着时间的推移,周满秀终于渐渐走出了自己编织的幻境,开始接受医生的治疗,只是,活在现实之中,真的会比活在幻想之中要幸福吗?

  1. ##### MediaInfo ######

  2. General

  3. Unique ID : 335258943685932948453968910608830113116 (0xFC38861CCADB06B504418BB0FAE1255C)

  4. Complete name : [email protected]

  5. Format : Matroska

  6. Format version : Version 4

  7. File size : 4.04 GiB

  8. Duration : 1 h 54 min

  9. Overall bit rate : 5 074 kb/s

  10. Encoded date : UTC 2022-04-13 03:41:52

  11. Writing application : mkvmerge v65.0.0 ('Too Much') 64-bit

  12. Writing library : libebml v1.4.2 + libmatroska v1.6.4

  13. Video

  14. ID : 1

  15. Format : AVC

  16. Format/Info : Advanced Video Codec

  17. Format profile : [email protected]

  18. Format settings : CABAC / 3 Ref Frames

  19. Format settings, CABAC : Yes

  20. Format settings, Reference frames : 3 frames

  21. Format settings, GOP : M=1, N=60

  22. Codec ID : V_MPEG4/ISO/AVC

  23. Duration : 1 h 53 min

  24. Bit rate : 4 946 kb/s

  25. Width : 1 920 pixels

  26. Height : 1 080 pixels

  27. Display aspect ratio : 16:9

  28. Frame rate mode : Constant

  29. Frame rate : 30.000 FPS

  30. Color space : YUV

  31. Chroma subsampling : 4:2:0

  32. Bit depth : 8 bits

  33. Scan type : Progressive

  34. Bits/(Pixel*Frame) : 0.080

  35. Stream size : 3.94 GiB (97%)

  36. Language : Korean

  37. Default : Yes

  38. Forced : No

  39. Audio

  40. ID : 2

  41. Format : AAC LC

  42. Format/Info : Advanced Audio Codec Low Complexity

  43. Codec ID : A_AAC-2

  44. Duration : 1 h 54 min

  45. Bit rate : 128 kb/s

  46. Channel(s) : 2 channels

  47. Channel layout : L R

  48. Sampling rate : 44.1 kHz

  49. Frame rate : 43.066 FPS (1024 SPF)

  50. Compression mode : Lossy

  51. Stream size : 104 MiB (3%)

  52. Language : Korean

  53. Default : Yes

  54. Forced : No

  55. Text #1

  56. ID : 3

  57. Format : UTF-8

  58. Codec ID : S_TEXT/UTF8

  59. Codec ID/Info : UTF-8 Plain Text

  60. Duration : 1 h 46 min

  61. Bit rate : 22 b/s

  62. Count of elements : 819

  63. Stream size : 17.3 KiB (0%)

  64. Title : Chinese Simplified

  65. Language : Chinese

  66. Default : Yes

  67. Forced : No

  68. Text #2

  69. ID : 4

  70. Format : UTF-8

  71. Codec ID : S_TEXT/UTF8

  72. Codec ID/Info : UTF-8 Plain Text

  73. Duration : 1 h 46 min

  74. Bit rate : 22 b/s

  75. Count of elements : 819

  76. Stream size : 17.3 KiB (0%)

  77. Title : Chinese Traditional

  78. Language : Chinese

  79. Default : Yes

  80. Forced : No


复制代码



文件下载


除非特别注明,本文『我很幸福[简体字幕].I.Am.Happy.2008.1080p.WEB-DL.AAC2.0.H.264-CTRLWEB 4.04GB』来源于互联网机器人自动抓取,非本站原创。 浮游电影网不对本文拥有版权,如有侵犯,请联系邮箱:fuyouu#yandex.com[#换成@]投诉。我们会在15个工作日内删除。 但烦请转载时请标明出处:“本文转载于『浮游电影网』,原文地址:https://www.fuyouu.com/21348.html

评论吧骚年!

发表你的见解   

昵称*

E-mail*(建议输入,以便收到博主回复的提示邮件)

验证码*

您可以使用eMule或eMule Mod(Windows)、aMule(Win、Linux、Mac)等软件下载eD2k链接。。
eMule收藏集(.emulecollection)文件是您选中的所有链接的列表文件。eMule可以直接下载它们。
按住SHIFT键选择可以选中多个选择框。
可用文件名和大小选择器来选择文件。
文件名选择器帮您根据文件名称或后缀来选择文件。不分大小写。
符号使用:
和:空格( )、+
不包含:-
或:|
转义:一对英文引号("");
匹配开头:^
匹配结尾:$
例如:
选中所有名称中包含有“eMule”或“0.49c”字眼,但不包含有“exe”字眼的:emule|0.49c -exe
选中所有名称的开头是“eMule”,结尾是“0.49c”的:^emule 0.49c$
选中所有名称中带有“eMule 0.49c”的(必须是“eMule 0.49c”,中间没有别的字符,不能是“eMule fake 0.49c”),需要转义:"emule 0.49c"
大小选择器帮您根据文件大小选择文件。