当前位置: 首页 >> 国产电影 >> 浮城大亨[国粤英多音轨/繁英字幕].Floating.City.2012.BluRay.1080p.2Audio.TrueHD.7.1.x265.10bit-ALT 9.86GB >> 正文

浮城大亨[国粤英多音轨/繁英字幕].Floating.City.2012.BluRay.1080p.2Audio.TrueHD.7.1.x265.10bit-ALT 9.86GB

2022年04月15日 13:24:10     电影发布:来源于网络     电影分类:国产电影     评论(0)    

浮城大亨[国粤英多音轨/繁英字幕].Floating.City.2012.BluRay.1080p.2Audio.TrueHD.7.1.x265.10bit ALT 9.86GB  国产电影  第1张

◎译 名 浮城大亨 / 百年浮城 / Floating City / Hundred Years of A Floating City

◎片 名 浮城

◎年 代 2012

◎产 地 中国大陆 / 中国香港

◎类 别 剧情

◎语 言 汉语普通话 / 粤语

◎上映日期 2012-05-18(中国大陆)

◎IMDb链接 https://www.imdb.com/title/tt2387469/

◎豆瓣评分 7.5/10 (23726人评价)

◎豆瓣链接 https://movie.douban.com/subject/10586620/

◎片 长 104分钟

◎导 演 严浩 Ho Yim (id:1275090)

◎编 剧 严浩 Ho Yim (id:1275090)

庞向怡 Marco Pong (id:1323274)

◎演 员 郭富城 Aaron Kwok (id:1041390)

杨采妮 Charlie Yeung (id:1018373)

鲍起静 Hee Ching Paw (id:1274229)

刘心悠 Annie Liu (id:1001301)

何超仪 Josie Ho (id:1014212)

郑家星 Carlson Cheng Ka-Sing (id:1313922)

鲁振顺 Chun-shun Lo (id:1315173)

颜卓灵 Cherry Ngan (id:1318260)

河国荣 Gregory Charles Rivers (id:1046226)

袁富华 Fu-wah Yuen (id:1359508)

赵璧渝 Osanna Chiu (id:1392409)

黃可盈 Melanie Wong (id:1426998)

林炳坤 Bingkun Lin (id:1350348)

严浩 Ho Yim (id:1275090)

严艺之 Linq Yim (id:1432506)

林国华 Ardy Lam (id:1289296)

谭国明 Stanley Tam (id:1347829)

郑秀娴 Miggy Cheng (id:1335015)

◎简 介

90年代,东印度公司首席大班布华泉(郭富城 饰)年仅40岁,已经功成名就,经常出入上流社会。工作上,老板很赏识他的才干。不过在生活上,他却面临两个女人的感情纠结:一个是妻子阿娣(杨采妮 饰),另一个是助理Fion(刘心悠 饰)。然而最令他痛苦的是自己的身世。40年前 ,因为一次海啸,泉妈(何超仪/鲍起静 饰)的船遭遇不测,只领回了一个混血婴孩,那便是阿泉。从此,阿泉跟泉妈出海捕鱼,并与下人的幼女缔结了纯洁的友谊。后者童言无忌,谈到他的身世总是遭遇暴打。两小无猜的他们,最终因为一次意外而分离。阿泉的学习很刻苦,但是却与泉爸的关系很紧张。直到工作后,他才慢慢与父亲和解。身世始终困扰着阿泉,即使在外籍的船上,他也难以获得认同。后来,因为家道中落,泉爸离世,泉带着他们一干兄弟姐妹,如逃难般寻找救济,甚至不惜向刁蛮的船主妥协。最终,他了解到自己被收养的身世,这...

  1. ##### MediaInfo ######

  2. General

  3. Unique ID : 177149076850092789022689976243249872351 (0x8545ABD1F7EF20A78C9C98118415FDDF)

  4. Complete name : Floating.City.2012.BluRay.1080p.2Audio.TrueHD.7.1.x265.10bit-BeiTai.mkv

  5. Format : Matroska

  6. Format version : Version 4

  7. File size : 9.86 GiB

  8. Duration : 1 h 44 min

  9. Overall bit rate mode : Variable

  10. Overall bit rate : 13.5 Mb/s

  11. Encoded date : UTC 2022-04-13 02:57:47

  12. Writing application : mkvmerge v49.0.0 ('Sick Of Losing Soulmates') 64-bit

  13. Writing library : libebml v1.4.0 + libmatroska v1.6.1

  14. Video

  15. ID : 1

  16. Format : HEVC

  17. Format/Info : High Efficiency Video Coding

  18. Format profile : Main [email protected]@High

  19. Codec ID : V_MPEGH/ISO/HEVC

  20. Duration : 1 h 44 min

  21. Bit rate : 8 500 kb/s

  22. Width : 1 920 pixels

  23. Height : 804 pixels

  24. Display aspect ratio : 2.40:1

  25. Frame rate mode : Constant

  26. Frame rate : 24.000 FPS

  27. Color space : YUV

  28. Chroma subsampling : 4:2:0

  29. Bit depth : 10 bits

  30. Bits/(Pixel*Frame) : 0.229

  31. Stream size : 6.21 GiB (63%)

  32. Title : HEVC, [email protected]@High, 24 fps @ 8499 kbps

  33. Writing library : x265 3.5+36-1f2c8da77:[Windows][GCC 11.2.0][64 bit] 10bit

  34. Encoding settings : cpuid=533541111039 / frame-threads=4 / numa-pools=16 / wpp / pmode / pme / no-psnr / no-ssim / log-level=2 / input-csp=1 / input-res=1920x804 / interlace=0 / total-frames=150549 / level-idc=51 / high-tier=1 / uhd-bd=0 / ref=5 / no-allow-non-conformance / no-repeat-headers / annexb / no-aud / no-eob / no-eos / no-hrd / info / hash=0 / no-temporal-layers / open-gop / min-keyint=24 / keyint=240 / gop-lookahead=0 / bframes=6 / b-adapt=2 / b-pyramid / bframe-bias=0 / rc-lookahead=40 / lookahead-slices=0 / NTMzNTQ=uuDQuD2mJt9fsCf / scenecut=40 / no-hist-scenecut / radl=0 / no-splice / no-intra-refresh / ctu=32 / min-cu-size=8 / no-rect / no-amp / max-tu-size=32 / tu-inter-depth=3 / tu-intra-depth=3 / limit-tu=4 / rdoq-level=2 / dynamic-rd=0.00 / no-ssim-rd / signhide / no-tskip / nr-intra=0 / nr-inter=0 / no-constrained-intra / no-strong-intra-smoothing / max-merge=4 / limit-refs=1 / limit-modes / me=3 / subme=4 / merange=25 / temporal-mvp / no-frame-dup / no-hme / weightp / weightb / no-analyze-src-pics / deblock=-3:-3 / no-sao / no-sao-non-deblock / rd=6 / selective-sao=0 / no-early-skip / rskip / no-fast-intra / no-tskip-fast / no-cu-lossless / b-intra / no-splitrd-skip / rdpenalty=0 / psy-rd=2.00 / psy-rdoq=1.00 / no-rd-refine / no-lossless / cbqpoffs=0 / crqpoffs=0 / rc=crf / crf=17.0 / qcomp=0.65 / qpstep=4 / stats-write=0 / stats-read=0 / vbv-maxrate=80000 / vbv-bufsize=80000 / vbv-init=0.9 / min-vbv-fullness=50.0 / max-vbv-fullness=80.0 / crf-max=0.0 / crf-min=0.0 / ipratio=1.40 / pbratio=1.30 / aq-mode=2 / aq-strength=0.85 / cutree / zone-count=0 / no-strict-cbr / qg-size=32 / no-rc-grain / qpmax=69 / qpmin=0 / no-const-vbv / sar=1 / overscan=0 / videoformat=5 / range=0 / colorprim=1 / transfer=1 / colormatrix=1 / chromaloc=0 / display-window=0 / cll=0,0 / min-luma=0 / max-luma=1023 / log2-max-poc-lsb=8 / vui-timing-info / vui-hrd-info / slices=1 / no-opt-qp-pps / no-opt-ref-list-length-pps / no-multi-pass-opt-rps / scenecut-bias=0.05 / hist-threshold=0.03 / no-opt-cu-delta-qp / no-aq-motion / no-hdr10 / no-hdr10-opt / no-dhdr10-opt / no-idr-recovery-sei / analysis-reuse-level=0 / analysis-save-reuse-level=0 / analysis-load-reuse-level=0 / scale-factor=0 / refine-intra=0 / refine-inter=0 / refine-mv=1 / refine-ctu-distortion=0 / no-limit-sao / ctu-info=0 / no-lowpass-dct / refine-analysis-type=0 / copy-pic=1 / max-ausize-factor=1.0 / no-dynamic-refine / no-single-sei / no-hevc-aq / no-svt / no-field / qp-adaptation-range=1.00 / scenecut-aware-qp=0conformance-window-offsets / right=0 / bottom=0 / NTMzNTQ= / decoder-max-rate=0 / no-vbv-live-multi-pass

  35. Language : English

  36. Default : Yes

  37. Forced : No

  38. Color range : Limited

  39. Color primaries : BT.709

  40. Transfer characteristics : BT.709

  41. Matrix coefficients : BT.709

  42. Audio #1

  43. ID : 2

  44. Format : MLP FBA

  45. Format/Info : Meridian Lossless Packing FBA

  46. Commercial name : Dolby TrueHD

  47. Codec ID : A_TRUEHD

  48. Duration : 1 h 44 min

  49. Bit rate mode : Variable

  50. Bit rate : 3 589 kb/s

  51. Maximum bit rate : 5 814 kb/s

  52. Channel(s) : 8 channels

  53. Channel layout : L R C LFE Ls Rs Lb Rb

  54. Sampling rate : 96.0 kHz

  55. Frame rate : 1 200.000 FPS (80 SPF)

  56. Compression mode : Lossless

  57. Stream size : 2.62 GiB (27%)

  58. Title : Cantonese Dolby TrueHD 7.1 @ 3589 kbps

  59. Language : Chinese

  60. Default : Yes

  61. Forced : No

  62. Audio #2

  63. ID : 3

  64. Format : AC-3

  65. Format/Info : Audio Coding 3

  66. Commercial name : Dolby Digital

  67. Codec ID : A_AC3

  68. Duration : 1 h 44 min

  69. Bit rate mode : Constant

  70. Bit rate : 640 kb/s

  71. Channel(s) : 6 channels

  72. Channel layout : L R C LFE Ls Rs

  73. Sampling rate : 48.0 kHz

  74. Frame rate : 31.250 FPS (1536 SPF)

  75. Compression mode : Lossy

  76. Stream size : 479 MiB (5%)

  77. Title : Cantonese Dolby Digital Audio 5.1 @ 640 kbps

  78. Language : Chinese

  79. Service kind : Complete Main

  80. Default : No

  81. Forced : No

  82. Audio #3

  83. ID : 4

  84. Format : AC-3

  85. Format/Info : Audio Coding 3

  86. Commercial name : Dolby Digital

  87. Codec ID : A_AC3

  88. Duration : 1 h 44 min

  89. Bit rate mode : Constant

  90. Bit rate : 640 kb/s

  91. Channel(s) : 6 channels

  92. Channel layout : L R C LFE Ls Rs

  93. Sampling rate : 48.0 kHz

  94. Frame rate : 31.250 FPS (1536 SPF)

  95. Compression mode : Lossy

  96. Stream size : 479 MiB (5%)

  97. Title : Mandarin Dolby Digital Audio 5.1 @ 640 kbps

  98. Language : Chinese

  99. Service kind : Complete Main

  100. Default : No

  101. Forced : No

  102. Text #1

  103. ID : 5

  104. Format : PGS

  105. Codec ID : S_HDMV/PGS

  106. Codec ID/Info : Picture based subtitle format used on BDs/HD-DVDs

  107. Duration : 1 h 39 min

  108. Bit rate : 32.2 kb/s

  109. Count of elements : 2290

  110. Stream size : 23.0 MiB (0%)

  111. Title : Cht/SUP 原盘繁体

  112. Language : Chinese

  113. Default : Yes

  114. Forced : No

  115. Text #2

  116. ID : 6

  117. Format : PGS

  118. Codec ID : S_HDMV/PGS

  119. Codec ID/Info : Picture based subtitle format used on BDs/HD-DVDs

  120. Duration : 1 h 39 min

  121. Bit rate : 30.0 kb/s

  122. Count of elements : 2289

  123. Stream size : 21.4 MiB (0%)

  124. Title : Eng/SUP

  125. Language : English

  126. Default : No

  127. Forced : No

  128. Menu

  129. 00:00:00.000 : en:第 01 章

  130. 00:04:19.417 : en:第 02 章

  131. 00:08:15.167 : en:第 03 章

  132. 00:14:23.333 : en:第 04 章

  133. 00:20:27.958 : en:第 05 章

  134. 00:29:57.292 : en:第 06 章

  135. 00:33:13.583 : en:第 07 章

  136. 00:37:17.875 : en:第 08 章

  137. 00:43:02.667 : en:第 09 章

  138. 00:47:34.583 : en:第 10 章

  139. 00:51:53.417 : en:第 11 章

  140. 00:55:54.417 : en:第 12 章

  141. 01:01:48.250 : en:第 13 章

  142. 01:06:22.083 : en:第 14 章

  143. 01:10:57.042 : en:第 15 章

  144. 01:15:17.250 : en:第 16 章

  145. 01:24:09.792 : en:第 17 章

  146. 01:29:33.458 : en:第 18 章

  147. 01:35:23.333 : en:第 19 章

  148. 01:40:33.458 : en:第 20 章


复制代码



文件下载


除非特别注明,本文『浮城大亨[国粤英多音轨/繁英字幕].Floating.City.2012.BluRay.1080p.2Audio.TrueHD.7.1.x265.10bit-ALT 9.86GB』来源于互联网机器人自动抓取,非本站原创。 浮游电影网不对本文拥有版权,如有侵犯,请联系邮箱:fuyouu#yandex.com[#换成@]投诉。我们会在15个工作日内删除。 但烦请转载时请标明出处:“本文转载于『浮游电影网』,原文地址:https://www.fuyouu.com/21346.html

评论吧骚年!

发表你的见解   

昵称*

E-mail*(建议输入,以便收到博主回复的提示邮件)

验证码*

您可以使用eMule或eMule Mod(Windows)、aMule(Win、Linux、Mac)等软件下载eD2k链接。。
eMule收藏集(.emulecollection)文件是您选中的所有链接的列表文件。eMule可以直接下载它们。
按住SHIFT键选择可以选中多个选择框。
可用文件名和大小选择器来选择文件。
文件名选择器帮您根据文件名称或后缀来选择文件。不分大小写。
符号使用:
和:空格( )、+
不包含:-
或:|
转义:一对英文引号("");
匹配开头:^
匹配结尾:$
例如:
选中所有名称中包含有“eMule”或“0.49c”字眼,但不包含有“exe”字眼的:emule|0.49c -exe
选中所有名称的开头是“eMule”,结尾是“0.49c”的:^emule 0.49c$
选中所有名称中带有“eMule 0.49c”的(必须是“eMule 0.49c”,中间没有别的字符,不能是“eMule fake 0.49c”),需要转义:"emule 0.49c"
大小选择器帮您根据文件大小选择文件。