当前位置: 首页 >> 国产电影 >> 28岁未成年[国语配音/中文字幕].Suddenly.Seventeen.2016.2160p.WEB-DL.H265.AAC-CTRLWEB 11.43GB >> 正文

28岁未成年[国语配音/中文字幕].Suddenly.Seventeen.2016.2160p.WEB-DL.H265.AAC-CTRLWEB 11.43GB

2022年04月15日 13:22:04     电影发布:来源于网络     电影分类:国产电影     评论(0)    

28岁未成年[国语配音/中文字幕].Suddenly.Seventeen.2016.2160p.WEB DL.H265.AAC CTRLWEB 11.43GB  国产电影  第1张

◎译 名 28岁未成年 / 二十八岁未成年 / Suddenly Seventeen

◎年 代 2016

◎产 地 中国大陆

◎类 别 喜剧 / 爱情 / 奇幻

◎语 言 汉语普通话

◎上映日期 2016-12-09(中国大陆)

◎IMDb链接 https://www.imdb.com/title/tt5665040/

◎豆瓣评分 5.7/10 (100472人评价)

◎豆瓣链接 https://movie.douban.com/subject/26658568/

◎片 长 109分钟

◎导 演 张末 Mo Zhang (id:1329527)

◎编 剧 张末 Mo Zhang (id:1329527)

张弘毅 Hongyi Zhang (id:1319593)

张影 Ying Zhang (id:1365447)

翟嘟 Du Zhai (id:1365448)

田金 Jin Tian (id:1365449)

焦婷婷 Tingting Jiao (id:1338896)

尹薇 Vivian (id:1394273)

◎演 员 倪妮 Ni Ni (id:1315861)

霍建华 Wallace Huo (id:1015713)

马苏 Su Ma (id:1275459)

王大陆 Talu Wang (id:1341187)

潘斌龙 Binlong Pan (id:1316365)

隋凯 Michael Stephen Kai Sui (id:1319315)

刘恩佳 Enjia Liu (id:1355538)

余心恬 Xintian Yu (id:1320592)

汪汐潮 Xichao Wang (id:1326518)

来喜 Laixi (id:1321645)

曲哲明 Zheming Qu (id:1355411)

孟丹青 Daniel Wade Manwaring (id:1412044)

朱名愚 Mingyu Chu (id:1412096)

桑平 Ping Sang (id:1353611)

明莉 Ming Li (id:1413708)

宁文彤 Wentong Ning (id:1327677)

贾玲 Ling Jia (id:1328769)

孟丹青 Daniel Wade Manwaring (id:1412044)

梁郁 Yu Liang (id:1442414)

张艺谋 Yimou Zhang (id:1054398)

于飞 Fei Yu (id:1445404)

冯提莫 Timo Feng (id:1388742)

张末 Mo Zhang (id:1329527)

崔曜琛 YC (id:1461410)

◎简 介

二十八岁的凉夏(倪妮 饰)本以为一定能够和相恋了十年之久的男友茅亮(霍建华 饰)一起携手步入婚礼的殿堂,并且一直为了迎接两人盛大的婚礼而做着各种各样的准备,心中充满了对婚后生活的美好幻想。茅亮的公司正在进行着紧张的第二轮融资,事情进行的并不是非常顺利,凉夏对婚姻的渴望带给了茅亮巨大的压力。

某日,两人一起参加了凉夏闺蜜白晓柠(马苏 饰)的婚礼,经受不住婚礼上浪漫热烈的氛围,凉夏向茅亮逼婚了,让凉夏没有想到的是,茅亮竟然提出了分手的要求,巨大的打击之下,凉夏崩溃了。一场意外的发生让凉夏的心智返回到了十七岁的年纪,此时外表成熟内心却极为幼稚的她遇见了名为严岩(王大陆 饰)的男子。

◎获奖情况 (共1项)

第14届中国长春电影节 (2018)

金鹿奖 最佳青年导演处女作奖

└──张末 (id:1329527)

  1. ##### MediaInfo ######

  2. General

  3. Complete name : Suddenly.Seventeen.2016.2160p.WEB-DL.H265.AAC-CHDWEB.mp4

  4. Format : MPEG-4

  5. Format profile : Base Media

  6. Codec ID : isom (isom/iso2/mp41)

  7. File size : 11.4 GiB

  8. Duration : 1 h 46 min

  9. Overall bit rate : 15.3 Mb/s

  10. Recorded date : 2022-04-12T13:55:04.2782787+08:00

  11. Writing application : Lavf59.16.100

  12. Video

  13. ID : 1

  14. Format : HEVC

  15. Format/Info : High Efficiency Video Coding

  16. Format profile : [email protected]@Main

  17. Codec ID : hev1

  18. Codec ID/Info : High Efficiency Video Coding

  19. Duration : 1 h 46 min

  20. Bit rate : 15.1 Mb/s

  21. Width : 3 840 pixels

  22. Height : 1 616 pixels

  23. Display aspect ratio : 2.40:1

  24. Frame rate mode : Constant

  25. Frame rate : 24.000 FPS

  26. Color space : YUV

  27. Chroma subsampling : 4:2:0

  28. Bit depth : 8 bits

  29. Bits/(Pixel*Frame) : 0.102

  30. Stream size : 11.3 GiB (99%)

  31. Codec configuration box : hvcC

  32. Audio

  33. ID : 2

  34. Format : AAC LC

  35. Format/Info : Advanced Audio Codec Low Complexity

  36. Codec ID : mp4a-40-2

  37. Duration : 1 h 46 min

  38. Bit rate mode : Constant

  39. Bit rate : 192 kb/s

  40. Channel(s) : 2 channels

  41. Channel layout : L R

  42. Sampling rate : 44.1 kHz

  43. Frame rate : 43.066 FPS (1024 SPF)

  44. Compression mode : Lossy

  45. Stream size : 145 MiB (1%)

  46. Default : Yes

  47. Alternate group : 1


复制代码



文件下载


除非特别注明,本文『28岁未成年[国语配音/中文字幕].Suddenly.Seventeen.2016.2160p.WEB-DL.H265.AAC-CTRLWEB 11.43GB』来源于互联网机器人自动抓取,非本站原创。 浮游电影网不对本文拥有版权,如有侵犯,请联系邮箱:fuyouu#yandex.com[#换成@]投诉。我们会在15个工作日内删除。 但烦请转载时请标明出处:“本文转载于『浮游电影网』,原文地址:https://www.fuyouu.com/21344.html

评论吧骚年!

发表你的见解   

昵称*

E-mail*(建议输入,以便收到博主回复的提示邮件)

验证码*

您可以使用eMule或eMule Mod(Windows)、aMule(Win、Linux、Mac)等软件下载eD2k链接。。
eMule收藏集(.emulecollection)文件是您选中的所有链接的列表文件。eMule可以直接下载它们。
按住SHIFT键选择可以选中多个选择框。
可用文件名和大小选择器来选择文件。
文件名选择器帮您根据文件名称或后缀来选择文件。不分大小写。
符号使用:
和:空格( )、+
不包含:-
或:|
转义:一对英文引号("");
匹配开头:^
匹配结尾:$
例如:
选中所有名称中包含有“eMule”或“0.49c”字眼,但不包含有“exe”字眼的:emule|0.49c -exe
选中所有名称的开头是“eMule”,结尾是“0.49c”的:^emule 0.49c$
选中所有名称中带有“eMule 0.49c”的(必须是“eMule 0.49c”,中间没有别的字符,不能是“eMule fake 0.49c”),需要转义:"emule 0.49c"
大小选择器帮您根据文件大小选择文件。