当前位置: 首页 >> 港台电影 >> 圣何塞谋杀案[杜比视界版本][国语配音/中文字幕].Fatal.Visit.2020.2160p.WEB-DL.H265.DV.DDP5.1.2Audio-HDBWEB 2.92GB >> 正文

圣何塞谋杀案[杜比视界版本][国语配音/中文字幕].Fatal.Visit.2020.2160p.WEB-DL.H265.DV.DDP5.1.2Audio-HDBWEB 2.92GB

2022年04月15日 13:16:17     电影发布:来源于网络     电影分类:港台电影     评论(0)    

圣何塞谋杀案[杜比视界版本][国语配音/中文字幕].Fatal.Visit.2020.2160p.WEB DL.H265.DV.DDP5.1.2Audio HDBWEB 2.92GB  港台电影  第1张

◎译 名 圣何塞谋杀案 / 圣荷西谋杀案 / Fatal Visit

◎片 名 聖荷西謀殺案

◎年 代 2019

◎产 地 中国香港

◎类 别 爱情 / 悬疑 / 犯罪

◎语 言 粤语 / 汉语普通话

◎上映日期 2020-10-04(中国大陆网络) / 2019-11-19(中国香港点映) / 2020-09-25(中国香港)

◎IMDb链接 https://www.imdb.com/title/tt7271190/

◎豆瓣评分 4.6/10 (7664人评价)

◎豆瓣链接 https://movie.douban.com/subject/27110314/

◎片 长 88分钟

◎导 演 潘源良 Yuen-Leung Poon (id:1294715)

◎编 剧 翁子光 Philip Yung (id:1319709)

庄梅岩 Candace Chong (id:1379143)

潘源良 Yuen-Leung Poon (id:1294715)

◎演 员 郑秀文 Sammi Cheng (id:1023284)

佟大为 Dawei Tong (id:1009179)

蔡卓妍 Charlene Choi (id:1041425)

林嘉华 Dominic Lam (id:1321559)

谭耀文 Patrick Tam (id:1033280)

唐纳德·亨 Donald Heng (id:1446724)

黎拨佳 B.C. Lee (id:1433809)

陈硕罡 Shuogang Chen (id:1417976)

关悦 Yue Guan (id:1315022)

唐文康 Stanley Tong (id:1335934)

邵剑秋 Kim-Chau Shiu (id:1413263)

杨受成 Albert Yeung (id:1313455)

于晓楠 Xiaonan Yu (id:1417264)

李凤媚 (id:1438021)

迈克尔·帕克 Michael Parker (id:1351305)

曹敬文 King Man Cho (id:1383601)

朱嘉懿 Julia Chu (id:1415701)

杰夫·丹纳 Jeff Danna (id:1276509)

麦切尔·丹纳 Mychael Danna (id:1050402)

叶绍麒 Yip Shiu Kei (id:1408645)

黄海 Hoi Wong (id:1325303)

张叔平 William Chang (id:1274369)

张兆康 Ahong Cheung (id:1366935)

江宜真 Yi Chen Chiang (id:1416625)

杜笃之 Du-Che Tu (id:1275159)

王重治 (id:1438023)

黎子良 Bernard Lai (id:1438022)

◎简 介

故事由女子Yanny(蔡卓妍 饰)为了逃避自己在香港的失败恋情,前往美国探望多年不见的女友Ling(郑秀文 饰)展开。Ling与丈夫Tang(佟大为 饰)在圣荷西过着仿佛宁静无忧的理想生活。但就在短短五天的探访中,Yanny竟揭发了这对夫妇背后隐藏的身份真相。三个人各自有着不可告人的历史,更重演着一场凶案的轨迹,冲向你死我亡的结局。异乡人的美国梦,孤寂与怀疑累积成沉重的代价。

◎获奖情况 (共8项)

第39届香港电影金像奖 (2020)

最佳女主角(提名)

└──郑秀文 (id:1023284)

最佳女配角(提名)

└──蔡卓妍 (id:1041425)

第12届澳门国际电影节 (2020)

金莲花奖 最佳故事片大奖(提名)

金莲花奖 最佳导演奖(提名)

└──潘源良 (id:1294715)

金莲花奖 最佳女主角(提名)

└──郑秀文 (id:1023284)

金莲花奖 最佳男主角(提名)

└──佟大为 (id:1009179)

金莲花奖 最佳女配角(提名)

└──蔡卓妍 (id:1041425)

金莲花奖 最佳摄影(提名)

└──叶绍麒 (id:1408645)

  1. ##### MediaInfo ######

  2. General

  3. Complete name : 圣何塞谋杀案.Fatal.Visit.2020.2160p.WEB-DL.H265.DV.DDP5.1.2Audio-OurTV.mp4

  4. Format : MPEG-4

  5. Format profile : Base Media / Version 2

  6. Codec ID : mp42 (mp42/iso6/isom/msdh/dby1)

  7. File size : 2.92 GiB

  8. Duration : 1 h 28 min

  9. Overall bit rate : 4 709 kb/s

  10. Encoded date : UTC 2022-04-12 01:51:04

  11. Tagged date : UTC 2022-04-12 01:51:04

  12. Video

  13. ID : 1

  14. Format : HEVC

  15. Format/Info : High Efficiency Video Coding

  16. Format profile : Main [email protected]@Main

  17. HDR format : Dolby Vision, Version 1.0, dvhe.05.06, BL+RPU

  18. Codec ID : dvhe

  19. Codec ID/Info : High Efficiency Video Coding with Dolby Vision

  20. Duration : 1 h 28 min

  21. Bit rate : 4 194 kb/s

  22. Width : 3 840 pixels

  23. Height : 1 624 pixels

  24. Original height : 1 620 pixels

  25. Display aspect ratio : 2.40:1

  26. Frame rate mode : Constant

  27. Frame rate : 24.000 FPS

  28. Color space : YUV

  29. Chroma subsampling : 4:2:0

  30. Bit depth : 10 bits

  31. Bits/(Pixel*Frame) : 0.028

  32. Stream size : 2.60 GiB (89%)

  33. Default : Yes

  34. Alternate group : 1

  35. Encoded date : UTC 2022-04-12 01:51:04

  36. Tagged date : UTC 2022-04-12 01:51:04

  37. Color range : Full

  38. Codec configuration box : hvcC+dvcC

  39. Audio #1

  40. ID : 2

  41. Format : E-AC-3

  42. Format/Info : Enhanced AC-3

  43. Commercial name : Dolby Digital Plus

  44. Codec ID : ac-3

  45. Duration : 1 h 28 min

  46. Bit rate mode : Constant

  47. Bit rate : 256 kb/s

  48. Channel(s) : 6 channels

  49. Channel layout : L R C LFE Ls Rs

  50. Sampling rate : 48.0 kHz

  51. Frame rate : 31.250 FPS (1536 SPF)

  52. Compression mode : Lossy

  53. Stream size : 162 MiB (5%)

  54. Language : Chinese

  55. Service kind : Complete Main

  56. Default : Yes

  57. Alternate group : 2

  58. Encoded date : UTC 2022-04-12 01:51:04

  59. Tagged date : UTC 2022-04-12 01:51:04

  60. Audio #2

  61. ID : 3

  62. Format : E-AC-3

  63. Format/Info : Enhanced AC-3

  64. Commercial name : Dolby Digital Plus

  65. Codec ID : ac-3

  66. Duration : 1 h 28 min

  67. Bit rate mode : Constant

  68. Bit rate : 256 kb/s

  69. Channel(s) : 6 channels

  70. Channel layout : L R C LFE Ls Rs

  71. Sampling rate : 48.0 kHz

  72. Frame rate : 31.250 FPS (1536 SPF)

  73. Compression mode : Lossy

  74. Stream size : 162 MiB (5%)

  75. Language : Chinese

  76. Service kind : Complete Main

  77. Default : No

  78. Alternate group : 2

  79. Encoded date : UTC 2022-04-12 01:51:04

  80. Tagged date : UTC 2022-04-12 01:51:04


复制代码



文件下载


除非特别注明,本文『圣何塞谋杀案[杜比视界版本][国语配音/中文字幕].Fatal.Visit.2020.2160p.WEB-DL.H265.DV.DDP5.1.2Audio-HDBWEB 2.92GB』来源于互联网机器人自动抓取,非本站原创。 浮游电影网不对本文拥有版权,如有侵犯,请联系邮箱:fuyouu#yandex.com[#换成@]投诉。我们会在15个工作日内删除。 但烦请转载时请标明出处:“本文转载于『浮游电影网』,原文地址:https://www.fuyouu.com/21342.html

评论吧骚年!

发表你的见解   

昵称*

E-mail*(建议输入,以便收到博主回复的提示邮件)

验证码*

您可以使用eMule或eMule Mod(Windows)、aMule(Win、Linux、Mac)等软件下载eD2k链接。。
eMule收藏集(.emulecollection)文件是您选中的所有链接的列表文件。eMule可以直接下载它们。
按住SHIFT键选择可以选中多个选择框。
可用文件名和大小选择器来选择文件。
文件名选择器帮您根据文件名称或后缀来选择文件。不分大小写。
符号使用:
和:空格( )、+
不包含:-
或:|
转义:一对英文引号("");
匹配开头:^
匹配结尾:$
例如:
选中所有名称中包含有“eMule”或“0.49c”字眼,但不包含有“exe”字眼的:emule|0.49c -exe
选中所有名称的开头是“eMule”,结尾是“0.49c”的:^emule 0.49c$
选中所有名称中带有“eMule 0.49c”的(必须是“eMule 0.49c”,中间没有别的字符,不能是“eMule fake 0.49c”),需要转义:"emule 0.49c"
大小选择器帮您根据文件大小选择文件。