当前位置: 首页 >> 港台电影 >> 白蚁:欲望谜网[国语音轨].White.Ant.2016.CHINESE.1080p.AMZN.WEBRip.DDP2.0.x264-HG 3.52GB >> 正文

白蚁:欲望谜网[国语音轨].White.Ant.2016.CHINESE.1080p.AMZN.WEBRip.DDP2.0.x264-HG 3.52GB

2022年04月13日 22:39:42     电影发布:来源于网络     电影分类:港台电影     评论(0)    

白蚁:欲望谜网[国语音轨].White.Ant.2016.CHINESE.1080p.AMZN.WEBRip.DDP2.0.x264 HG 3.52GB 剧情 港台电影  第1张

◎译 名 白蚁:欲望谜网 / 白蚁 / 颜色失真 / White Ant

◎片 名 白蟻:慾望謎網

◎年 代 2016

◎产 地 中国台湾

◎类 别 剧情

◎语 言 汉语普通话

◎上映日期 2017-03-17(中国台湾) / 2016-10-10(釜山电影节)

◎IMDb链接 https://www.imdb.com/title/tt6129128/

◎豆瓣评分 6.5/10 (1486人评价)

◎豆瓣链接 https://movie.douban.com/subject/26609332/

◎片 长 95分钟

◎导 演 朱贤哲 Hsien-che Chu (id:1362211)

◎编 剧 朱贤哲 Hsien-che Chu (id:1362211)

◎演 员 吴慷仁 Kang Ren Wu (id:1275665)

于台烟 Taiyan Yu (id:1336109)

钟瑶 Aviis Zhong (id:1361864)

胡玮杰 Wei-Jie Hu (id:1352914)

芳婷 Alina Fang-Ting (id:1362589)

罗茂铨 (id:1372411)

蔡佾玲 Yiling Tsai (id:1439609)

苏皇铭 Huang-Ming Su (id:1428861)

◎简 介

吴慷仁从影生涯最突破性演出,情欲画面挑战尺度极限!以人性最写实灰暗的底层出发,《白蚁:欲望谜网》阐释偷窥与被偷窥之间,无边的猫追老鼠关系……

白以德(白蚁)努力让自己看起来像是正常上班族,但到了晚上却常常无法控制自己对女性内衣裤的欲望。一次,在白以德行窃女性内衣裤几天之后,他收到了一张DVD,DVD里面正是他偷窃过程的画面。原来,失恋情绪无法抒发的汤君红,追踪失联男友时却意外拍摄到白以德在窃取女性内衣裤。因为愤怒,汤君红没有报警却把拍摄的影像制成DVD寄给白以德,这件看似「正义」的举动却一发不可收拾……

◎获奖情况 (共5项)

第53届台北金马影展 (2016)

金马奖 最佳新导演(提名)

└──朱贤哲 (id:1362211)

第21届釜山国际电影节 (2016)

新浪潮奖(提名)

└──朱贤哲 (id:1362211)

国际影评人协会奖

第19届台北电影节 (2017)

台北电影奖 最佳剧情长片(提名)

台北电影奖 最佳男主角奖

└──吴慷仁 (id:1275665)

  1. Video

  2. ID : 1

  3. Format : AVC

  4. Format/Info : Advanced Video Codec

  5. Format profile : [email protected]

  6. Format settings : CABAC / 4 Ref Frames

  7. Format settings, CABAC : Yes

  8. Format settings, Reference frames : 4 frames

  9. Codec ID : V_MPEG4/ISO/AVC

  10. Duration : 1 h 35 min

  11. Bit rate mode : Variable

  12. Bit rate : 5 058 kb/s

  13. Maximum bit rate : 15.0 Mb/s

  14. Width : 1 920 pixels

  15. Height : 1 080 pixels

  16. Display aspect ratio : 16:9

  17. Frame rate mode : Constant

  18. Frame rate : 23.976 (24000/1001/53354) FPS

  19. Color space : YUV

  20. Chroma subsampling : 4:2:0

  21. Bit depth : 8 bits

  22. Scan type : Progressive

  23. Bits/(Pixel*Frame) : 0.102

  24. Stream size : 3.37 GiB (96%)

  25. Default : Yes

  26. Forced : No

  27. Color range : Limited

  28. Color primaries : BT.709

  29. Transfer characteristics : BT.709

  30. Matrix coefficients : BT.709


  31. Audio

  32. ID : 2

  33. Format : E-AC-3

  34. Format/Info : Enhanced AC-3

  35. Commercial name : Dolby Digital Plus

  36. Codec ID : A_EAC3

  37. Duration : 1 h 35 min

  38. Bit rate mode : Constant

  39. Bit rate : 224 kb/s

  40. Channel(s) : 2 channels

  41. Channel layout : L R

  42. Sampling rate : 48.0 kHz

  43. Frame rate : 31.250 FPS (1536 SPF)

  44. Compression mode : Lossy

  45. Stream size : 153 MiB (4%)

  46. Service kind : Complete Main

  47. Language: Chinese

  48. Default : Yes

  49. Forced : No


  50. Text

  51. ID : 3

  52. Format : UTF-8

  53. Codec ID : S_TEXT/UTF8

  54. Codec ID/Info : UTF-8 Plain Text

  55. Duration : 1 h 30 min

  56. Bit rate : 5 b/s

  57. Count of elements : 161

  58. Stream size : 3.56 KiB (0%)

  59. Title : English

  60. Language : English

  61. Default : No

  62. Forced : No

复制代码

白蚁:欲望谜网[国语音轨].White.Ant.2016.CHINESE.1080p.AMZN.WEBRip.DDP2.0.x264 HG 3.52GB 剧情 港台电影  第2张 白蚁:欲望谜网[国语音轨].White.Ant.2016.CHINESE.1080p.AMZN.WEBRip.DDP2.0.x264 HG 3.52GB 剧情 港台电影  第3张 白蚁:欲望谜网[国语音轨].White.Ant.2016.CHINESE.1080p.AMZN.WEBRip.DDP2.0.x264 HG 3.52GB 剧情 港台电影  第4张



文件下载


除非特别注明,本文『白蚁:欲望谜网[国语音轨].White.Ant.2016.CHINESE.1080p.AMZN.WEBRip.DDP2.0.x264-HG 3.52GB』来源于互联网机器人自动抓取,非本站原创。 浮游电影网不对本文拥有版权,如有侵犯,请联系邮箱:fuyouu#yandex.com[#换成@]投诉。我们会在15个工作日内删除。 但烦请转载时请标明出处:“本文转载于『浮游电影网』,原文地址:https://www.fuyouu.com/21341.html

评论吧骚年!

发表你的见解   

昵称*

E-mail*(建议输入,以便收到博主回复的提示邮件)

验证码*

您可以使用eMule或eMule Mod(Windows)、aMule(Win、Linux、Mac)等软件下载eD2k链接。。
eMule收藏集(.emulecollection)文件是您选中的所有链接的列表文件。eMule可以直接下载它们。
按住SHIFT键选择可以选中多个选择框。
可用文件名和大小选择器来选择文件。
文件名选择器帮您根据文件名称或后缀来选择文件。不分大小写。
符号使用:
和:空格( )、+
不包含:-
或:|
转义:一对英文引号("");
匹配开头:^
匹配结尾:$
例如:
选中所有名称中包含有“eMule”或“0.49c”字眼,但不包含有“exe”字眼的:emule|0.49c -exe
选中所有名称的开头是“eMule”,结尾是“0.49c”的:^emule 0.49c$
选中所有名称中带有“eMule 0.49c”的(必须是“eMule 0.49c”,中间没有别的字符,不能是“eMule fake 0.49c”),需要转义:"emule 0.49c"
大小选择器帮您根据文件大小选择文件。