当前位置: 首页 >> 日韩电影 >> 率性而活[中文字幕].Going.by.the.Book.2007.KOREAN.1080p.NF.WEBRip.DDP5.1.x264-NOGRP 3.96GB >> 正文

率性而活[中文字幕].Going.by.the.Book.2007.KOREAN.1080p.NF.WEBRip.DDP5.1.x264-NOGRP 3.96GB

2022年04月13日 22:38:43     电影发布:来源于网络     电影分类:日韩电影     评论(0)    

率性而活[中文字幕].Going.by.the.Book.2007.KOREAN.1080p.NF.WEBRip.DDP5.1.x264 NOGRP 3.96GB  日韩电影  第1张

◎译 名 率性而活 / 正正当当的活着 / 无正直生活 / Going by the Book

◎片 名 ??? ??

◎年 代 2007

◎产 地 韩国

◎类 别 喜剧

◎语 言 韩语

◎上映日期 2007-10-18(韩国)

◎IMDb链接 https://www.imdb.com/title/tt1193460/

◎豆瓣评分 8.3/10 (68109人评价)

◎豆瓣链接 https://movie.douban.com/subject/3033085/

◎片 长 102分钟

◎导 演 罗喜灿 Hee-chan Ra (id:1346360)

◎编 剧 张镇 Jang Jin (id:1274750)

罗喜灿 Hee-chan Ra (id:1346360)

齐藤浩史 Hiroshi Sait? (id:1304066)

都井邦彦 Kunihiko Toi (id:1434512)

◎演 员 郑在咏 Jae-yeong Jeong (id:1041961)

孙秉浩 Byung-ho Son (id:1024148)

李汉伟 Han-wi Lee (id:1316561)

李英恩 Yeong-eun Lee (id:1024945)

高昌锡 Chang-Seok Ko (id:1314613)

朱进模 Jin-mo Ju (id:1334676)

林志恩 Ji-Eun Lim (id:1115661)

李哲民 Cheol-min Lee (id:1316063)

赵德贤 Deok-hyeon Jo (id:1374620)

陈庸旭 Jin Yong-wook (id:1381296)

孔浩锡 Ho-seok Kong (id:1457978)

黄春河 Chun-ha Hwang (id:1458258)

张镇 Jang Jin (id:1274750)

柳希姃 Hee Jung Ryu (id:1262029)

◎简 介

新上任的三圃市警署署长李承宇(孙秉浩 饰)为了挽回警察在市民心目中的形象,亦为个人大造政绩,异想天开决定实行一次银行模拟劫案演习,当然,对这次训练的态度警局众人心照不宣,大家都明白这不过是逢场作戏,然而被安排扮演劫匪的巡警郑度满(郑在泳 饰)却不这么认为。平时默默无闻行事一丝不苟的郑度满受命后全力研究劫匪作案手法,完全进入了角色。演习当日,郑度满的专业表现令所有人大惊失色,警方的便衣与突击队纷纷“阵亡”在郑度满的枪下,原计划在媒体面前大出风头的李承宇如意算盘落空,却又对郑度满无可奈何。究竟这次“劫匪”逞凶的演习该如何收场?

本片剧本出自韩国著名编剧张镇之手,他的知名作品尚有《欢迎来到东莫村》等。

  1. Video

  2. ID : 1

  3. Format : AVC

  4. Format/Info : Advanced Video Codec

  5. Format profile : [email protected]

  6. Format settings : CABAC / 3 Ref Frames

  7. Format settings, CABAC : Yes

  8. Format settings, Reference frames : 3 frames

  9. Codec ID : V_MPEG4/ISO/AVC

  10. Duration : 1 h 43 min

  11. Bit rate mode : Variable

  12. Bit rate : 4 870 kb/s

  13. Maximum bit rate : 7 305 kb/s

  14. Width : 1 920 pixels

  15. Height : 1 080 pixels

  16. Display aspect ratio : 16:9

  17. Frame rate mode : Constant

  18. Frame rate : 23.976 (24000/1001/53354) FPS

  19. Color space : YUV

  20. Chroma subsampling : 4:2:0

  21. Bit depth : 8 bits

  22. Scan type : Progressive

  23. Bits/(Pixel*Frame) : 0.098

  24. Stream size : 3.50 GiB (88%)

  25. Writing library : x264 core 148 r2714 2daf636

  26. Encoding settings : cabac=1 / ref=3 / deblock=1:0:0 / analyse=0x1:0x111 / me=umh / subme=10 / psy=1 / psy_rd=1.00:0.00 / mixed_ref=1 / me_range=24 / chroma_me=1 / trellis=2 / 8x8dct=0 / cqm=0 / deadzone=21,11 / fast_pskip=1 / chroma_qp_offset=-2 / threads=6 / lookahead_threads=1 / sliced_threads=0 / nr=0 / decimate=1 / interlaced=0 / NTMzNTQ= / bluray_compat=0 / stitchable=1 / constrained_intra=0 / bframes=2 / b_pyramid=0 / b_adapt=2 / b_bias=0 / direct=3 / weightb=1 / open_gop=0 / weightp=2 / keyint=48 / keyint_min=25 / scenecut=0 / intra_refresh=0 / rc_lookahead=48 / rc=2pass / mbtree=1 / bitrate=4870 / ratetol=1.0 / qcomp=0.50 / qpmin=6 / qpmax=51 / qpstep=4 / cplxblur=20.0 / qblur=0.5 / vbv_maxrate=7305 / vbv_bufsize=9740 / nal_hrd=vbr / filler=0 / NTMzNTQ=LmsMAP37EqsCpk / ip_ratio=1.40 / aq=1:1.00

  27. Default : Yes

  28. Forced : No


  29. Audio

  30. ID : 2

  31. Format : E-AC-3

  32. Format/Info : Enhanced AC-3

  33. Commercial name : Dolby Digital Plus

  34. Codec ID : A_EAC3

  35. Duration : 1 h 43 min

  36. Bit rate mode : Constant

  37. Bit rate : 640 kb/s

  38. Channel(s) : 6 channels

  39. Channel layout : L R C LFE Ls Rs

  40. Sampling rate : 48.0 kHz

  41. Frame rate : 31.250 FPS (1536 SPF)

  42. Compression mode : Lossy

  43. Stream size : 472 MiB (12%)

  44. Language : Korean

  45. Service kind : Complete Main

  46. Default : Yes

  47. Forced : No


  48. Text #1

  49. ID : 3

  50. Format : UTF-8

  51. Codec ID : S_TEXT/UTF8

  52. Codec ID/Info : UTF-8 Plain Text

  53. Duration : 1 h 38 min

  54. Bit rate : 57 b/s

  55. Count of elements : 1300

  56. Stream size : 41.4 KiB (0%)

  57. Language : English

  58. Default : No

  59. Forced : No


  60. Text #2

  61. ID : 4

  62. Format : UTF-8

  63. Codec ID : S_TEXT/UTF8

  64. Codec ID/Info : UTF-8 Plain Text

  65. Duration : 1 h 38 min

  66. Bit rate : 64 b/s

  67. Count of elements : 1294

  68. Stream size : 46.2 KiB (0%)

  69. Language : Chinese

  70. Default : No

  71. Forced : No


  72. Text #3

  73. ID : 5

  74. Format : UTF-8

  75. Codec ID : S_TEXT/UTF8

  76. Codec ID/Info : UTF-8 Plain Text

  77. Duration : 1 h 38 min

  78. Bit rate : 92 b/s

  79. Count of elements : 1801

  80. Stream size : 66.5 KiB (0%)

  81. Language : Korean

  82. Default : No

  83. Forced : No


  84. Text #4

  85. ID : 6

  86. Format : UTF-8

  87. Codec ID : S_TEXT/UTF8

  88. Codec ID/Info : UTF-8 Plain Text

  89. Duration : 1 h 40 min

  90. Bit rate : 53 b/s

  91. Count of elements : 1287

  92. Stream size : 39.5 KiB (0%)

  93. Language : Hungarian

  94. Default : No

  95. Forced : No

复制代码

率性而活[中文字幕].Going.by.the.Book.2007.KOREAN.1080p.NF.WEBRip.DDP5.1.x264 NOGRP 3.96GB  日韩电影  第2张 率性而活[中文字幕].Going.by.the.Book.2007.KOREAN.1080p.NF.WEBRip.DDP5.1.x264 NOGRP 3.96GB  日韩电影  第3张 率性而活[中文字幕].Going.by.the.Book.2007.KOREAN.1080p.NF.WEBRip.DDP5.1.x264 NOGRP 3.96GB  日韩电影  第4张



文件下载


除非特别注明,本文『率性而活[中文字幕].Going.by.the.Book.2007.KOREAN.1080p.NF.WEBRip.DDP5.1.x264-NOGRP 3.96GB』来源于互联网机器人自动抓取,非本站原创。 浮游电影网不对本文拥有版权,如有侵犯,请联系邮箱:fuyouu#yandex.com[#换成@]投诉。我们会在15个工作日内删除。 但烦请转载时请标明出处:“本文转载于『浮游电影网』,原文地址:https://www.fuyouu.com/21340.html

评论吧骚年!

发表你的见解   

昵称*

E-mail*(建议输入,以便收到博主回复的提示邮件)

验证码*

您可以使用eMule或eMule Mod(Windows)、aMule(Win、Linux、Mac)等软件下载eD2k链接。。
eMule收藏集(.emulecollection)文件是您选中的所有链接的列表文件。eMule可以直接下载它们。
按住SHIFT键选择可以选中多个选择框。
可用文件名和大小选择器来选择文件。
文件名选择器帮您根据文件名称或后缀来选择文件。不分大小写。
符号使用:
和:空格( )、+
不包含:-
或:|
转义:一对英文引号("");
匹配开头:^
匹配结尾:$
例如:
选中所有名称中包含有“eMule”或“0.49c”字眼,但不包含有“exe”字眼的:emule|0.49c -exe
选中所有名称的开头是“eMule”,结尾是“0.49c”的:^emule 0.49c$
选中所有名称中带有“eMule 0.49c”的(必须是“eMule 0.49c”,中间没有别的字符,不能是“eMule fake 0.49c”),需要转义:"emule 0.49c"
大小选择器帮您根据文件大小选择文件。