当前位置: 首页 >> 国产电影 >> 捉妖记2[共2部合集][国粤英多音轨/繁英字幕].Monster.Hunt.1-2.BluRay.1080p.2Audio.TrueHD.7.1.x265.10bit-ALT 34.58GB >> 正文

捉妖记2[共2部合集][国粤英多音轨/繁英字幕].Monster.Hunt.1-2.BluRay.1080p.2Audio.TrueHD.7.1.x265.10bit-ALT 34.58GB

2022年04月13日 22:35:01     电影发布:来源于网络     电影分类:国产电影     评论(0)    

捉妖记2[共2部合集][国粤英多音轨/繁英字幕].Monster.Hunt.1 2.BluRay.1080p.2Audio.TrueHD.7.1.x265.10bit ALT 34.58GB  国产电影  第1张

◎译 名 捉妖记2 / Monster Hunt 2

◎年 代 2018

◎产 地 中国大陆 / 中国香港

◎类 别 喜剧 / 动作 / 奇幻 / 古装

◎语 言 汉语普通话

◎上映日期 2018-02-16(中国大陆)

◎IMDb链接 https://www.imdb.com/title/tt6170484/

◎豆瓣评分 4.9/10 (337616人评价)

◎豆瓣链接 https://movie.douban.com/subject/26575103/

◎片 长 110分钟

◎导 演 许诚毅 Raman Hui (id:1287124)

◎编 剧 吴炜伦 Wai Lun Ng (id:1275435)

陈咏燊 Sunny Chan (id:1375202)

苏亮 Liang Su (id:1328265)

◎演 员 梁朝伟 Tony Leung Chiu Wai (id:1115918)

白百何 Baihe Bai (id:1275542)

井柏然 Boran Jing (id:1274628)

李宇春 Yuchun Li (id:1274227)

杨祐宁 Yo Yang (id:1051157)

大鹏 Chengpeng Dong (id:1324043)

吴君如 Sandra Ng (id:1127819)

曾志伟 Eric Tsang (id:1002862)

黄磊 Lei Huang (id:1037715)

柳岩 Yan Liu (id:1312846)

吴莫愁 Mouchou Wu (id:1326741)

伍嘉成 Jiacheng Wu (id:1357678)

赵磊 Ray Zhao (id:1356855)

谷嘉诚 Jason Gu (id:1356456)

彭楚粤 Chuyue Peng (id:1360384)

陈泽希 Emn Chen (id:1371736)

郭子凡 Zifan Guo (id:1357225)

肖战 Zhan Xiao (id:1360615)

焉栩嘉 Xujia Yan (id:1364488)

夏之光 Zhiguang Xia (id:1371733)

姜超 Chao Jiang (id:1274652)

娄艺潇 Yixiao Lou (id:1313784)

张俪 Li Zhang (id:1316159)

蔡瀚亿 Babyjohn Choi (id:1335563)

高赫一 Heyi Gao (id:1410544)

彭梓洋 Ziyang Peng (id:1394910)

巩承琪 Chengqi Gong (id:1427515)

张成名 Chengming Zhang (id:1351250)

颜卓灵 Cherry Ngan (id:1318260)

周柏豪 Pakho Chau (id:1275779)

陈嘉佳 Ka-Kai Chan (id:1336610)

辛雨锡 Yuxi Xin (id:1347662)

于谷鸣 Yu guming (id:1390911)

谭广沙 Guangsha Tan (id:1388976)

奚仲文 Chung-Man Hai (id:1275027)

张晗 Han Zhang (id:1442702)

谢家慧 Doris Tse (id:1388882)

江志强 William Kong (id:1288870)

李健威 Kin-wai Lee (id:1326655)

吉约姆·阿瑞托斯 Guillaume Aretos (id:1016118)

奚仲文 Chung-Man Hai (id:1275027)

陆婧希 Jingxi Lu (id:1463187)

孙岩 Yan Sun (id:1440463)

郭钟宇 Zhongyu Guo (id:1440378)

安德拉斯·伊克拉迪 Andras Ikladi (id:1409232)

谷垣健治 Kenji Tanigaki (id:1335515)

◎简 介

上一集与胡巴分别后,天荫(井柏然 饰)带着小岚(白百何 饰)踏上寻父之路,在义薄云天的天师堂堂主云大哥(杨祐宁 饰)的帮助下,二人得知天荫父亲宋戴天的护妖轨迹;而重回永宁村的胡巴再度被妖王追杀,颠沛流离逃亡时结识大赌徒屠四谷(梁朝伟 饰)和一只妖怪,三人一起过着相依为命的生活,但又因屠四谷欠下的巨额赌债横生诸多波折。与此同时 ,江湖盛传小妖王胡巴的重金悬赏令,妖界大军、天师精英、绿林草莽闻风而动,多方势力为抢夺胡巴在清水镇掀起腥风血雨。千钧一发之际,念子心切的天荫和小岚通过天师堂找到胡巴并一起逃离险境。岂料,一场更大的惊天阴谋尾随而至,伺机而动……

◎获奖情况 (共6项)

第38届香港电影金像奖 (2019)

最佳摄影(提名)

└──潘耀明 (id:1307639)

最佳美术指导(提名)

最佳服装造型设计(提名)

└──奚仲文 (id:1275027)

最佳音响效果(提名)

最佳视觉效果(提名)

└──潘国瑜 (id:1294718)

第4届豆瓣电影年度榜单 (2017)

最值得期待的华语电影

  1. 合集文件列表:

  2. 1.Monster.Hunt.2.2018.BluRay.1080p.2Audio.TrueHD.7.1.x265.10bit-ALT.mkv 17.04GB

  3. 2.Monster.Hunt.2015.BluRay.1080p.2Audio.TrueHD.7.1.x265.10bit-ALT.mkv 17.54GB


复制代码

  1. ##### MediaInfo ######

  2. General

  3. Unique ID : 2472451267980733221608789309637963590 (0x1DC2D425373D019531B9CBDCD7AAF46)

  4. Complete name : Monster.Hunt.2.2018.BluRay.1080p.2Audio.TrueHD.7.1.x265.10bit-BeiTai.mkv

  5. Format : Matroska

  6. Format version : Version 4

  7. File size : 17.0 GiB

  8. Duration : 1 h 50 min

  9. Overall bit rate mode : Variable

  10. Overall bit rate : 22.1 Mb/s

  11. Encoded date : UTC 2020-04-11 07:51:37

  12. Writing application : mkvmerge v45.0.0 ('Heaven in Pennies') 64-bit

  13. Writing library : libebml v1.3.10 + libmatroska v1.5.2

  14. Video

  15. ID : 1

  16. Format : HEVC

  17. Format/Info : High Efficiency Video Coding

  18. Format profile : Main [email protected]@High

  19. Codec ID : V_MPEGH/ISO/HEVC

  20. Duration : 1 h 50 min

  21. Bit rate : 13.1 Mb/s

  22. Width : 1 920 pixels

  23. Height : 804 pixels

  24. Display aspect ratio : 2.40:1

  25. Frame rate mode : Constant

  26. Frame rate : 23.976 (24000/1001/53354) FPS

  27. Color space : YUV

  28. Chroma subsampling : 4:2:0

  29. Bit depth : 10 bits

  30. Bits/(Pixel*Frame) : 0.353

  31. Stream size : 10.1 GiB (59%)

  32. Title : HEVC, [email protected]@High, 24/1.001 fps @ 13063 kbps

  33. Writing library : x265 3.3+1-g396395b2b:[Windows][GCC 9.2.0][64 bit] 10bit

  34. Encoding settings : cpuid=533541111039 / frame-threads=4 / numa-pools=16 / wpp / pmode / pme / no-psnr / no-ssim / log-level=2 / input-csp=1 / input-res=1920x804 / interlace=0 / total-frames=158650 / level-idc=51 / high-tier=1 / uhd-bd=0 / ref=5 / no-allow-non-conformance / no-repeat-headers / annexb / no-aud / no-hrd / info / hash=0 / no-temporal-layers / open-gop / min-keyint=24 / keyint=240 / gop-lookahead=0 / bframes=6 / b-adapt=2 / b-pyramid / bframe-bias=0 / rc-lookahead=40 / lookahead-slices=0 / NTMzNTQ=uuDQuD2mJt9fsCf / scenecut=40 / hist-scenecut=0 / radl=0 / no-splice / no-intra-refresh / ctu=32 / min-cu-size=8 / no-rect / no-amp / max-tu-size=32 / tu-inter-depth=3 / tu-intra-depth=3 / limit-tu=4 / rdoq-level=2 / dynamic-rd=0.00 / no-ssim-rd / signhide / no-tskip / nr-intra=0 / nr-inter=0 / no-constrained-intra / no-strong-intra-smoothing / max-merge=4 / limit-refs=1 / limit-modes / me=3 / subme=4 / merange=25 / temporal-mvp / no-frame-dup / no-hme / weightp / weightb / no-analyze-src-pics / deblock=-3:-3 / no-sao / no-sao-non-deblock / rd=6 / selective-sao=0 / no-early-skip / rskip / no-fast-intra / no-tskip-fast / no-cu-lossless / b-intra / no-splitrd-skip / rdpenalty=0 / psy-rd=2.00 / psy-rdoq=1.00 / no-rd-refine / no-lossless / cbqpoffs=0 / crqpoffs=0 / rc=crf / crf=17.0 / qcomp=0.65 / qpstep=4 / stats-write=0 / stats-read=0 / vbv-maxrate=80000 / vbv-bufsize=80000 / vbv-init=0.9 / crf-max=0.0 / crf-min=0.0 / ipratio=1.40 / pbratio=1.30 / aq-mode=2 / aq-strength=0.85 / cutree / zone-count=0 / no-strict-cbr / qg-size=32 / no-rc-grain / qpmax=69 / qpmin=0 / no-const-vbv / sar=1 / overscan=0 / videoformat=5 / range=0 / colorprim=1 / transfer=1 / colormatrix=1 / chromaloc=0 / display-window=0 / cll=0,0 / min-luma=0 / max-luma=1023 / log2-max-poc-lsb=8 / vui-timing-info / vui-hrd-info / slices=1 / no-opt-qp-pps / no-opt-ref-list-length-pps / no-multi-pass-opt-rps / scenecut-bias=0.05 / hist-threshold=0.01 / no-opt-cu-delta-qp / no-aq-motion / no-hdr10 / no-hdr10-opt / no-dhdr10-opt / no-idr-recovery-sei / analysis-reuse-level=0 / analysis-save-reuse-level=0 / analysis-load-reuse-level=0 / scale-factor=0 / refine-intra=0 / refine-inter=0 / refine-mv=1 / refine-ctu-distortion=0 / no-limit-sao / ctu-info=0 / no-lowpass-dct / refine-analysis-type=0 / copy-pic=1 / max-ausize-factor=1.0 / no-dynamic-refine / no-single-sei / no-hevc-aq / no-svt / no-field / qp-adaptation-range=1.00 / no-scenecut-aware-qpconformance-window-offsets / right=0 / bottom=0 / NTMzNTQ=

  35. Language : English

  36. Default : Yes

  37. Forced : No

  38. Color range : Limited

  39. Color primaries : BT.709

  40. Transfer characteristics : BT.709

  41. Matrix coefficients : BT.709

  42. Audio #1

  43. ID : 2

  44. Format : MLP FBA

  45. Format/Info : Meridian Lossless Packing FBA

  46. Commercial name : Dolby TrueHD

  47. Codec ID : A_TRUEHD

  48. Duration : 1 h 50 min

  49. Bit rate mode : Variable

  50. Bit rate : 3 786 kb/s

  51. Maximum bit rate : 5 856 kb/s

  52. Channel(s) : 8 channels

  53. Channel layout : L R C LFE Ls Rs Lb Rb

  54. Sampling rate : 96.0 kHz

  55. Frame rate : 1 200.000 FPS (80 SPF)

  56. Compression mode : Lossless

  57. Stream size : 2.92 GiB (17%)

  58. Title : Cantonese Dolby TrueHD Audio 7.1 @ 4426 kbps

  59. Language : Chinese

  60. Default : Yes

  61. Forced : No

  62. Audio #2

  63. ID : 3

  64. Format : AC-3

  65. Format/Info : Audio Coding 3

  66. Commercial name : Dolby Digital

  67. Codec ID : A_AC3

  68. Duration : 1 h 50 min

  69. Bit rate mode : Constant

  70. Bit rate : 640 kb/s

  71. Channel(s) : 6 channels

  72. Channel layout : L R C LFE Ls Rs

  73. Sampling rate : 48.0 kHz

  74. Frame rate : 31.250 FPS (1536 SPF)

  75. Compression mode : Lossy

  76. Stream size : 505 MiB (3%)

  77. Title : Cantonese Dolby Digital Audio 5.1 @ 640 kbps

  78. Language : Chinese

  79. Service kind : Complete Main

  80. Default : No

  81. Forced : No

  82. Audio #3

  83. ID : 4

  84. Format : MLP FBA

  85. Format/Info : Meridian Lossless Packing FBA

  86. Commercial name : Dolby TrueHD

  87. Codec ID : A_TRUEHD

  88. Duration : 1 h 50 min

  89. Bit rate mode : Variable

  90. Bit rate : 3 781 kb/s

  91. Maximum bit rate : 5 856 kb/s

  92. Channel(s) : 8 channels

  93. Channel layout : L R C LFE Ls Rs Lb Rb

  94. Sampling rate : 96.0 kHz

  95. Frame rate : 1 200.000 FPS (80 SPF)

  96. Compression mode : Lossless

  97. Stream size : 2.91 GiB (17%)

  98. Title : Mandarin Dolby TrueHD Audio 7.1 @ 4421 kbps

  99. Language : Chinese

  100. Default : No

  101. Forced : No

  102. Audio #4

  103. ID : 5

  104. Format : AC-3

  105. Format/Info : Audio Coding 3

  106. Commercial name : Dolby Digital

  107. Codec ID : A_AC3

  108. Duration : 1 h 50 min

  109. Bit rate mode : Constant

  110. Bit rate : 640 kb/s

  111. Channel(s) : 6 channels

  112. Channel layout : L R C LFE Ls Rs

  113. Sampling rate : 48.0 kHz

  114. Frame rate : 31.250 FPS (1536 SPF)

  115. Compression mode : Lossy

  116. Stream size : 505 MiB (3%)

  117. Title : Mandarin Dolby Digital Audio 5.1 @ 640 kbps

  118. Language : Chinese

  119. Service kind : Complete Main

  120. Default : No

  121. Forced : No

  122. Text #1

  123. ID : 6

  124. Format : PGS

  125. Codec ID : S_HDMV/PGS

  126. Codec ID/Info : Picture based subtitle format used on BDs/HD-DVDs

  127. Duration : 1 h 44 min

  128. Bit rate : 25.8 kb/s

  129. Count of elements : 2412

  130. Stream size : 19.2 MiB (0%)

  131. Title : Cht/SUP 原盘繁体

  132. Language : Chinese

  133. Default : Yes

  134. Forced : No

  135. Text #2

  136. ID : 7

  137. Format : PGS

  138. Codec ID : S_HDMV/PGS

  139. Codec ID/Info : Picture based subtitle format used on BDs/HD-DVDs

  140. Duration : 1 h 44 min

  141. Bit rate : 24.4 kb/s

  142. Count of elements : 2316

  143. Stream size : 18.2 MiB (0%)

  144. Title : Cht/SUP 原盘繁体

  145. Language : Chinese

  146. Default : No

  147. Forced : No

  148. Text #3

  149. ID : 8

  150. Format : PGS

  151. Codec ID : S_HDMV/PGS

  152. Codec ID/Info : Picture based subtitle format used on BDs/HD-DVDs

  153. Duration : 1 h 44 min

  154. Bit rate : 31.4 kb/s

  155. Count of elements : 2412

  156. Stream size : 23.4 MiB (0%)

  157. Title : Eng/SUP

  158. Language : English

  159. Default : No

  160. Forced : No

  161. Menu

  162. 00:00:00.000 : en:绗?01 绔?

  163. 00:05:32.332 : en:绗?02 绔?

  164. 00:16:36.787 : en:绗?03 绔?

  165. 00:25:06.922 : en:绗?04 绔?

  166. 00:36:28.937 : en:绗?05 绔?

  167. 00:46:05.805 : en:绗?06 绔?

  168. 00:55:04.343 : en:绗?07 绔?

  169. 01:04:44.214 : en:绗?08 绔?

  170. 01:14:08.110 : en:绗?09 绔?

  171. 01:22:13.804 : en:绗?10 绔?

  172. 01:31:25.730 : en:绗?11 绔?

  173. 01:41:09.981 : en:绗?12 绔?


复制代码



文件下载


除非特别注明,本文『捉妖记2[共2部合集][国粤英多音轨/繁英字幕].Monster.Hunt.1-2.BluRay.1080p.2Audio.TrueHD.7.1.x265.10bit-ALT 34.58GB』来源于互联网机器人自动抓取,非本站原创。 浮游电影网不对本文拥有版权,如有侵犯,请联系邮箱:fuyouu#yandex.com[#换成@]投诉。我们会在15个工作日内删除。 但烦请转载时请标明出处:“本文转载于『浮游电影网』,原文地址:https://www.fuyouu.com/21336.html

评论吧骚年!

发表你的见解   

昵称*

E-mail*(建议输入,以便收到博主回复的提示邮件)

验证码*

您可以使用eMule或eMule Mod(Windows)、aMule(Win、Linux、Mac)等软件下载eD2k链接。。
eMule收藏集(.emulecollection)文件是您选中的所有链接的列表文件。eMule可以直接下载它们。
按住SHIFT键选择可以选中多个选择框。
可用文件名和大小选择器来选择文件。
文件名选择器帮您根据文件名称或后缀来选择文件。不分大小写。
符号使用:
和:空格( )、+
不包含:-
或:|
转义:一对英文引号("");
匹配开头:^
匹配结尾:$
例如:
选中所有名称中包含有“eMule”或“0.49c”字眼,但不包含有“exe”字眼的:emule|0.49c -exe
选中所有名称的开头是“eMule”,结尾是“0.49c”的:^emule 0.49c$
选中所有名称中带有“eMule 0.49c”的(必须是“eMule 0.49c”,中间没有别的字符,不能是“eMule fake 0.49c”),需要转义:"emule 0.49c"
大小选择器帮您根据文件大小选择文件。