当前位置: 首页 >> 欧美电影 >> 特工佳丽[共2部合集][国英多音轨/简繁英字幕].Miss.Congeniality.1-2.2000-2005.BluRay.1080p.2Audio.DTS-HD.MA5.1.x265.10bit >> 正文

特工佳丽[共2部合集][国英多音轨/简繁英字幕].Miss.Congeniality.1-2.2000-2005.BluRay.1080p.2Audio.DTS-HD.MA5.1.x265.10bit

2022年04月13日 22:34:06     电影发布:来源于网络     电影分类:欧美电影     评论(0)    

特工佳丽[共2部合集][国英多音轨/简繁英字幕].Miss.Congeniality.1 2.2000 2005.BluRay.1080p.2Audio.DTS HD.MA5.1.x265.10bit  欧美电影  第1张

◎译 名 特工佳丽 / 选美俏卧底(港) / 麻辣女王(台) / 选美小姐 / 友谊小姐 / 选美警花 / 美眉总动员

◎片 名 Miss Congeniality

◎年 代 2000

◎产 地 美国 / 澳大利亚

◎类 别 喜剧 / 动作 / 犯罪

◎语 言 英语 / 俄语 / 法语 / Hawaiian / 西班牙语

◎上映日期 2000-12-22(美国)

◎IMDb链接 https://www.imdb.com/title/tt0212346/

◎豆瓣评分 6.9/10 (31161人评价)

◎豆瓣链接 https://movie.douban.com/subject/1301173/

◎片 长 109 分钟

◎导 演 唐纳德·皮特里 Donald Petrie (id:1000563)

◎编 剧 马克·劳伦斯 Marc Lawrence (id:1111492)

凯蒂·福特 Katie Ford (id:1350507)

◎演 员 桑德拉·布洛克 Sandra Bullock (id:1022003)

迈克尔·凯恩 Michael Caine (id:1054509)

本杰明·布拉特 Benjamin Bratt (id:1036383)

坎迪斯·伯根 Candice Bergen (id:1044897)

威廉·夏特纳 William Shatner (id:1002704)

埃涅·赫德森 Ernie Hudson (id:1036444)

希瑟·伯恩斯 Heather Burns (id:1322602)

梅丽莎·德索萨 Melissa De Sousa (id:1027511)

斯蒂夫·蒙罗埃 Steve Monroe (id:1124221)

温蒂·拉奎尔·罗宾逊 Wendy Raquel Robinson (id:1145428)

肯·托马斯 Ken Thomas (id:1154303)

加布里埃尔·福尔斯 Gabriel Folse (id:1082176)

克林特·蒂德韦尔 Clint Tidwell (id:1150214)

斯派克·斯潘塞 Spike Spencer (id:1149350)

特洛伊·迪林格 Troy Dillinger (id:1166174)

温迪·威尔斯·冈克尔 Wendy Wells-Gunkel (id:1432991)

约翰尼·巴蒂 Johnny Bartee (id:1178386)

达斯汀·艾米 Dustin Amy (id:1182064)

丹·埃格尔斯顿 Dan Eggleston (id:1201451)

布莱恩·斯坦顿 Brian Stanton (id:1204932)

尼基·马丁内斯 Nikki Martinez (id:1223182)

特雷弗·纳尔逊 Trevor Nelson (id:1225391)

布伦特·米切尔 Brent Mitchell (id:1231865)

马可·佩雷拉 Marco Perella (id:1341873)

特洛伊·哈里斯 Troy Harris (id:1238671)

康斯坦丁·塞利瓦诺夫 Konstantin Selivanov (id:1140938)

戴恩·康纳 Dyan Conner (id:1072948)

卡米利·陈 Camille Chen (id:1071717)

詹妮弗·加雷斯 Jennifer Gareis (id:1054994)

斯蒂芬·布鲁顿 Stephen Bruton (id:1041344)

科迪·林雷 Cody Linley (id:1040625)

罗伯特·F·卡利 Robert F. Cawley (id:1075661)

珍妮弗·马蒂耶 Jennifer Matyear (id:1122728)

李安妮·洛宁 LeeAnne Locken (id:1118828)

丹尼·卡明 Danny Kamin (id:1103532)

杰西卡·黑尔 Jessica Hale (id:1098009)

柯比·M·希斯科斯 Kirby M. Hiscox (id:1095213)

玛丽·阿什利·格林 Mary Ashleigh Green (id:1094765)

埃里克·伊恩·戈德堡 Eric Ian Goldberg (id:1091230)

凯蒂·邓拉普 Katy Dunlap (id:1089733)

辛西娅·多恩 Cynthia Dorn (id:1088443)

杰里米·丹茨林格 Jeremy Denzlinger (id:1086098)

桑德拉·布洛克 Sandra Bullock (id:1022003)

马克·劳伦斯 Marc Lawrence (id:1111492)

埃德·希尔默尔 Ed Shearmur (id:1297377)

拉兹洛·科瓦奇 László Kovács (id:1048332)

比利·韦伯 Billy Weber (id:1300592)

丹尼斯·查米恩 Denise Chamian (id:1280408)

巴尔巴拉·哈伯得勒支 Barbara Haberecht (id:1276302)

彼得·拉金 Peter S. Larkin (id:1289457)

苏·德萨图 Susie DeSanto (id:1282289)

Carla Palmer Carla Palmer (id:1127003)

Dorothy J. Pearl Dorothy J. Pearl (id:1294172)

David Waters David Waters (id:1038293)

Raymond Prado Raymond Prado (id:1131226)

约翰·T·范弗利特 John T. Van Vliet (id:1299892)

Martin Hilke Martin Hilke (id:1286616)

凯文·范霍克 Kevin VanHook (id:1010282)

哈里·爱森斯坦 Harry Eisenstein (id:1003667)

Vince Di Meglio Vince Di Meglio (id:1000777)

◎简 介

格雷西的母亲是一名出色的联邦特工,在一次任务中不幸殉职。格雷西(桑德拉?布洛克 Sandra Bullock 饰)长大后继承了母亲的事业,也成为了一名联邦特工。格雷西从小就脾气刚烈、不修边幅,作为“假小子”的她并不受欢迎,只有她的拍档兼好友艾瑞克(本杰明?布拉特 Benjamin Bratt 饰)理解她。

FBI获悉有一伙恐怖分子准备在美国小姐选美时制造恐怖袭击,为挫败这次阴谋,FBI决定派卧底参加选美。任务自然落到了格雷西身上。经过造型师的巧手,格雷西令所有人都眼前一亮,她的“假小子”性格自然也令到这次任务笑料百出。

直到美国小姐庆典举行当晚,一切似乎都没有异常。然而,当格雷西和一众佳丽站到台上时,意外发生了!

◎获奖情况 (共2项)

第58届金球奖 (2001)

电影类 音乐/喜剧片最佳女主角(提名)

└──桑德拉·布洛克 (id:1022003)

电影类 最佳原创歌曲(提名)

  1. 合集文件列表:

  2. 1.Miss.Congeniality.2.Armed.and.Fabulous.2005.BluRay.1080p.2Audio.DTS-HD.MA5.1.x265.10bit-ALT.mkv 12.70GB

  3. 2.Miss.Congeniality.2000.BluRay.1080p.2Audio.DTS-HD.MA5.1.x265.10bit-ALT.mkv 8.90GB


复制代码

  1. ##### MediaInfo ######

  2. General

  3. Unique ID : 136462456918283529084177278643391341826 (0x66A9B694B11CEB38B6A0D5B7860AA502)

  4. Complete name : Miss.Congeniality.2.Armed.and.Fabulous.2005.BluRay.1080p.2Audio.DTS-HD.MA5.1.x265.10bit-BeiTai.mkv

  5. Format : Matroska

  6. Format version : Version 4

  7. File size : 12.7 GiB

  8. Duration : 1 h 50 min

  9. Overall bit rate mode : Variable

  10. Overall bit rate : 16.5 Mb/s

  11. Encoded date : UTC 2020-04-29 02:18:48

  12. Writing application : mkvmerge v45.0.0 ('Heaven in Pennies') 64-bit

  13. Writing library : libebml v1.3.10 + libmatroska v1.5.2

  14. Video

  15. ID : 1

  16. Format : HEVC

  17. Format/Info : High Efficiency Video Coding

  18. Format profile : Main [email protected]@High

  19. Codec ID : V_MPEGH/ISO/HEVC

  20. Duration : 1 h 50 min

  21. Bit rate : 12.1 Mb/s

  22. Width : 1 920 pixels

  23. Height : 1 080 pixels

  24. Display aspect ratio : 16:9

  25. Frame rate mode : Constant

  26. Frame rate : 23.976 (24000/1001/53354) FPS

  27. Color space : YUV

  28. Chroma subsampling : 4:2:0

  29. Bit depth : 10 bits

  30. Bits/(Pixel*Frame) : 0.244

  31. Stream size : 9.33 GiB (73%)

  32. Title : HEVC, [email protected]@High, 24/1.001 fps @ 12110 kbps

  33. Writing library : x265 3.3+1-g396395b2b:[Windows][GCC 9.2.0][64 bit] 10bit

  34. Encoding settings : cpuid=533541111039 / frame-threads=5 / numa-pools=44,44 / wpp / pmode / pme / no-psnr / no-ssim / log-level=2 / input-csp=1 / input-res=1920x1080 / interlace=0 / total-frames=158600 / level-idc=51 / high-tier=1 / uhd-bd=0 / ref=5 / no-allow-non-conformance / no-repeat-headers / annexb / no-aud / no-hrd / info / hash=0 / no-temporal-layers / open-gop / min-keyint=24 / keyint=240 / gop-lookahead=0 / bframes=6 / b-adapt=2 / b-pyramid / bframe-bias=0 / rc-lookahead=40 / lookahead-slices=0 / NTMzNTQ=uuDQuD2mJt9fsCf / scenecut=40 / hist-scenecut=0 / radl=0 / no-splice / no-intra-refresh / ctu=32 / min-cu-size=8 / no-rect / no-amp / max-tu-size=32 / tu-inter-depth=3 / tu-intra-depth=3 / limit-tu=4 / rdoq-level=2 / dynamic-rd=0.00 / no-ssim-rd / signhide / no-tskip / nr-intra=0 / nr-inter=0 / no-constrained-intra / no-strong-intra-smoothing / max-merge=4 / limit-refs=1 / limit-modes / me=3 / subme=4 / merange=25 / temporal-mvp / no-frame-dup / no-hme / weightp / weightb / no-analyze-src-pics / deblock=-3:-3 / no-sao / no-sao-non-deblock / rd=6 / selective-sao=0 / no-early-skip / rskip / no-fast-intra / no-tskip-fast / no-cu-lossless / b-intra / no-splitrd-skip / rdpenalty=0 / psy-rd=2.00 / psy-rdoq=1.00 / no-rd-refine / no-lossless / cbqpoffs=0 / crqpoffs=0 / rc=crf / crf=17.0 / qcomp=0.65 / qpstep=4 / stats-write=0 / stats-read=0 / vbv-maxrate=80000 / vbv-bufsize=80000 / vbv-init=0.9 / crf-max=0.0 / crf-min=0.0 / ipratio=1.40 / pbratio=1.30 / aq-mode=2 / aq-strength=0.85 / cutree / zone-count=0 / no-strict-cbr / qg-size=32 / no-rc-grain / qpmax=69 / qpmin=0 / no-const-vbv / sar=1 / overscan=0 / videoformat=5 / range=0 / colorprim=1 / transfer=1 / colormatrix=1 / chromaloc=0 / display-window=0 / cll=0,0 / min-luma=0 / max-luma=1023 / log2-max-poc-lsb=8 / vui-timing-info / vui-hrd-info / slices=1 / no-opt-qp-pps / no-opt-ref-list-length-pps / no-multi-pass-opt-rps / scenecut-bias=0.05 / hist-threshold=0.01 / no-opt-cu-delta-qp / no-aq-motion / no-hdr10 / no-hdr10-opt / no-dhdr10-opt / no-idr-recovery-sei / analysis-reuse-level=0 / analysis-save-reuse-level=0 / analysis-load-reuse-level=0 / scale-factor=0 / refine-intra=0 / refine-inter=0 / refine-mv=1 / refine-ctu-distortion=0 / no-limit-sao / ctu-info=0 / no-lowpass-dct / refine-analysis-type=0 / copy-pic=1 / max-ausize-factor=1.0 / no-dynamic-refine / no-single-sei / no-hevc-aq / no-svt / no-field / qp-adaptation-range=1.00 / no-scenecut-aware-qpconformance-window-offsets / right=0 / bottom=0 / NTMzNTQ=

  35. Language : English

  36. Default : Yes

  37. Forced : No

  38. Color range : Limited

  39. Color primaries : BT.709

  40. Transfer characteristics : BT.709

  41. Matrix coefficients : BT.709

  42. Audio #1

  43. ID : 2

  44. Format : DTS XLL

  45. Format/Info : Digital Theater Systems

  46. Commercial name : DTS-HD Master Audio

  47. Codec ID : A_DTS

  48. Duration : 1 h 50 min

  49. Bit rate mode : Variable

  50. Bit rate : 4 043 kb/s

  51. Channel(s) : 6 channels

  52. Channel layout : C L R Ls Rs LFE

  53. Sampling rate : 48.0 kHz

  54. Frame rate : 93.750 FPS (512 SPF)

  55. Bit depth : 24 bits

  56. Compression mode : Lossless

  57. Stream size : 3.11 GiB (25%)

  58. Title : English DTS-HD Master Audio 5.1 @ 4043 kbps

  59. Language : English

  60. Default : Yes

  61. Forced : No

  62. Audio #2

  63. ID : 3

  64. Format : AC-3

  65. Format/Info : Audio Coding 3

  66. Commercial name : Dolby Digital

  67. Codec ID : A_AC3

  68. Duration : 1 h 50 min

  69. Bit rate mode : Constant

  70. Bit rate : 192 kb/s

  71. Channel(s) : 2 channels

  72. Channel layout : L R

  73. Sampling rate : 48.0 kHz

  74. Frame rate : 31.250 FPS (1536 SPF)

  75. Compression mode : Lossy

  76. Stream size : 151 MiB (1%)

  77. Title : Mandarin Dolby Digital Audio 2.0 @ 192 kbps

  78. Language : Chinese

  79. Service kind : Complete Main

  80. Default : No

  81. Forced : No

  82. Text #1

  83. ID : 4

  84. Format : PGS

  85. Codec ID : S_HDMV/PGS

  86. Codec ID/Info : Picture based subtitle format used on BDs/HD-DVDs

  87. Duration : 1 h 49 min

  88. Bit rate : 37.6 kb/s

  89. Count of elements : 3164

  90. Stream size : 29.4 MiB (0%)

  91. Title : Eng/SUP

  92. Language : English

  93. Default : No

  94. Forced : No

  95. Text #2

  96. ID : 5

  97. Format : PGS

  98. Codec ID : S_HDMV/PGS

  99. Codec ID/Info : Picture based subtitle format used on BDs/HD-DVDs

  100. Duration : 1 h 45 min

  101. Bit rate : 21.4 kb/s

  102. Count of elements : 3373

  103. Stream size : 16.1 MiB (0%)

  104. Title : Chs/SUP 简体

  105. Language : Chinese

  106. Default : Yes

  107. Forced : No

  108. Text #3

  109. ID : 6

  110. Format : PGS

  111. Codec ID : S_HDMV/PGS

  112. Codec ID/Info : Picture based subtitle format used on BDs/HD-DVDs

  113. Duration : 1 h 45 min

  114. Bit rate : 21.9 kb/s

  115. Count of elements : 3373

  116. Stream size : 16.5 MiB (0%)

  117. Title : Cht/SUP 繁体

  118. Language : Chinese

  119. Default : No

  120. Forced : No

  121. Text #4

  122. ID : 7

  123. Format : PGS

  124. Codec ID : S_HDMV/PGS

  125. Codec ID/Info : Picture based subtitle format used on BDs/HD-DVDs

  126. Duration : 1 h 45 min

  127. Bit rate : 32.2 kb/s

  128. Count of elements : 3373

  129. Stream size : 24.2 MiB (0%)

  130. Title : Chs/SUP 简英双语

  131. Language : Chinese

  132. Default : No

  133. Forced : No

  134. Text #5

  135. ID : 8

  136. Format : PGS

  137. Codec ID : S_HDMV/PGS

  138. Codec ID/Info : Picture based subtitle format used on BDs/HD-DVDs

  139. Duration : 1 h 45 min

  140. Bit rate : 33.1 kb/s

  141. Count of elements : 3373

  142. Stream size : 24.9 MiB (0%)

  143. Title : Cht/SUP 繁英双语

  144. Language : Chinese

  145. Default : No

  146. Forced : No

  147. Menu

  148. 00:00:00.000 : en:第 01 章

  149. 00:02:10.172 : en:第 02 章

  150. 00:07:01.921 : en:第 03 章

  151. 00:11:09.294 : en:第 04 章

  152. 00:15:19.919 : en:第 05 章

  153. 00:20:03.786 : en:第 06 章

  154. 00:22:29.181 : en:第 07 章

  155. 00:25:08.507 : en:第 08 章

  156. 00:30:07.431 : en:第 09 章

  157. 00:34:22.143 : en:第 10 章

  158. 00:37:01.094 : en:第 11 章

  159. 00:40:10.950 : en:第 12 章

  160. 00:42:28.171 : en:第 13 章

  161. 00:46:42.174 : en:第 14 章

  162. 00:48:56.475 : en:第 15 章

  163. 00:51:38.721 : en:第 16 章

  164. 00:54:32.895 : en:第 17 章

  165. 00:56:57.456 : en:第 18 章

  166. 01:01:36.484 : en:第 19 章

  167. 01:04:44.881 : en:第 20 章

  168. 01:07:02.977 : en:第 21 章

  169. 01:12:05.029 : en:第 22 章

  170. 01:15:32.445 : en:第 23 章

  171. 01:19:18.671 : en:第 24 章

  172. 01:23:11.486 : en:第 25 章

  173. 01:25:10.731 : en:第 26 章

  174. 01:28:32.390 : en:第 27 章

  175. 01:31:50.463 : en:第 28 章

  176. 01:34:07.475 : en:第 29 章

  177. 01:36:04.884 : en:第 30 章

  178. 01:40:35.947 : en:第 31 章

  179. 01:42:57.755 : en:第 32 章

  180. 01:45:36.038 : en:第 33 章


复制代码



文件下载


除非特别注明,本文『特工佳丽[共2部合集][国英多音轨/简繁英字幕].Miss.Congeniality.1-2.2000-2005.BluRay.1080p.2Audio.DTS-HD.MA5.1.x265.10bit』来源于互联网机器人自动抓取,非本站原创。 浮游电影网不对本文拥有版权,如有侵犯,请联系邮箱:fuyouu#yandex.com[#换成@]投诉。我们会在15个工作日内删除。 但烦请转载时请标明出处:“本文转载于『浮游电影网』,原文地址:https://www.fuyouu.com/21335.html

评论吧骚年!

发表你的见解   

昵称*

E-mail*(建议输入,以便收到博主回复的提示邮件)

验证码*

您可以使用eMule或eMule Mod(Windows)、aMule(Win、Linux、Mac)等软件下载eD2k链接。。
eMule收藏集(.emulecollection)文件是您选中的所有链接的列表文件。eMule可以直接下载它们。
按住SHIFT键选择可以选中多个选择框。
可用文件名和大小选择器来选择文件。
文件名选择器帮您根据文件名称或后缀来选择文件。不分大小写。
符号使用:
和:空格( )、+
不包含:-
或:|
转义:一对英文引号("");
匹配开头:^
匹配结尾:$
例如:
选中所有名称中包含有“eMule”或“0.49c”字眼,但不包含有“exe”字眼的:emule|0.49c -exe
选中所有名称的开头是“eMule”,结尾是“0.49c”的:^emule 0.49c$
选中所有名称中带有“eMule 0.49c”的(必须是“eMule 0.49c”,中间没有别的字符,不能是“eMule fake 0.49c”),需要转义:"emule 0.49c"
大小选择器帮您根据文件大小选择文件。