当前位置: 首页 >> 动画电影 >> 马达加斯加[共4部合集][国粤英多音轨/繁英字幕].Madagascar.2005-2014.BluRay.1080p.MultiAudio.DTS-HD.MA.7.1.x265.10bit-ALT >> 正文

马达加斯加[共4部合集][国粤英多音轨/繁英字幕].Madagascar.2005-2014.BluRay.1080p.MultiAudio.DTS-HD.MA.7.1.x265.10bit-ALT

2022年04月13日 22:33:08     电影发布:来源于网络     电影分类:动画电影     评论(0)    

马达加斯加[共4部合集][国粤英多音轨/繁英字幕].Madagascar.2005 2014.BluRay.1080p.MultiAudio.DTS HD.MA.7.1.x265.10bit ALT   动画电影  第1张

◎译 名 马达加斯加 / 荒失失奇兵(港)

◎片 名 Madagascar

◎年 代 2005

◎产 地 美国

◎类 别 喜剧 / 动画 / 家庭 / 冒险

◎语 言 英语 / 葡萄牙语 / 西班牙语 / 德语 / 法语

◎上映日期 2005-07-15(中国大陆) / 2005-05-27(美国)

◎IMDb链接 https://www.imdb.com/title/tt0351283/

◎豆瓣评分 7.9/10 (181708人评价)

◎豆瓣链接 https://movie.douban.com/subject/1309201/

◎片 长 86 分钟

◎导 演 埃里克·达尼尔 Eric Darnell (id:1315498)

汤姆·麦格拉思 Tom McGrath (id:1291597)

◎编 剧 马克·伯顿 Mark Burton (id:1279705)

比利·弗罗利克 Billy Frolick (id:1303759)

埃里克·达尼尔 Eric Darnell (id:1315498)

汤姆·麦格拉思 Tom McGrath (id:1291597)

◎演 员 本·斯蒂勒 Ben Stiller (id:1054412)

克里斯·洛克 Chris Rock (id:1004578)

大卫·休默 David Schwimmer (id:1041115)

贾达·萍克·史密斯 Jada Pinkett Smith (id:1054154)

萨莎·拜伦·科恩 Sacha Baron Cohen (id:1027161)

玉木宏 Hiroshi Tamaki (id:1014473)

何炅 Jiong He (id:1313023)

汤姆·麦格拉思 Tom McGrath (id:1291597)

康拉德·弗农 Conrad Vernon (id:1009555)

塞德里克·凯尔斯 Cedric the Entertainer (id:1044959)

扬·约瑟夫·利费斯 Jan Josef Liefers (id:1023143)

安迪·里克特 Andy Richter (id:1041199)

鲍勃·萨盖特 Bob Saget (id:1048141)

德维卡·帕利赫 Devika Parikh (id:1133501)

大卫·考吉尔 David Cowgill (id:1073503)

巴斯蒂安·帕斯特乌卡 Bastian Pastewka (id:1000933)

金海心 Haixin Jin (id:1362520)

林依轮 Allen Lin (id:1313324)

Mireille Soria Mireille Soria (id:1298089)

汉斯·季默 Hans Zimmer (id:1054386)

克莱尔·奈特 Clare Knight (id:1461001)

Mark A. Hester Mark A. Hester (id:1286544)

肯德尔·克罗克希特 Kendal Cronkhite (id:1281519)

潘国瑜 Ellen Poon (id:1294718)

Laurent Kermel Laurent Kermel (id:1302524)

Damon Crowe Damon Crowe (id:1175575)

Erik Mattson Erik Mattson (id:1291326)

Rick Glumac Rick Glumac (id:1284983)

Greg Hart Greg Hart (id:1309680)

Jim Mainard (id:1259936)

Kevan Shorey (id:1223114)

Shaun Collaco Shaun Collaco (id:1206340)

克日什托夫·罗斯泰克 Krzysztof Rostek (id:1296166)

James Stewart James Stewart (id:1298433)

Yuri Bartoli Yuri Bartoli (id:1303840)

Matt Baer Matt Baer (id:1304494)

Andrew Wheeler Andrew Wheeler (id:1308074)

Alain De Hoe Alain De Hoe (id:1308118)

Trina M. Roy Trina M. Roy (id:1308120)

Rob O'Neill Rob O'Neill (id:1198666)

Cindy Hong Cindy Hong (id:1181932)

Jonathan Gibbs Jonathan Gibbs (id:1307952)

Mark R. Wilkins Mark R. Wilkins (id:1022259)

菲利普·格拉克曼 Philippe Gluckman (id:1020683)

Laura Wood Laura Wood (id:1007276)

John B. Anderson John B. Anderson (id:1059015)

Carlos M. Rosas Carlos M. Rosas (id:1141061)

David P. Allen David P. Allen (id:1168065)

埃里克·莱瑟德 Eric Lessard (id:1424635)

◎简 介

在纽约的中央公园里,生活着这样一群无忧无虑的好朋友:狮子亚利克斯、斑马马蒂、长颈鹿麦尔曼以及胖河马格洛丽亚。他们的性格开朗活泼,因此每天的生活都过得丰富多彩。直到有一天,一群流浪的企鹅令斑马马蒂产生了一个大胆的念头,那就是逃出动物园,探寻自己的故乡,寻找新世界。于是,没有通知其他朋友,马蒂悄悄上路了。这下可急坏了朋友们,亚历克斯和其他几个朋友也逃出了中央公园,踏上了寻找马蒂的旅途。

◎获奖情况 (共7项)

第33届动画安妮奖 (2006)

最佳动画长片(提名)

最佳配乐(提名)

└──汉斯·季默 (id:1054386)

最佳分镜(提名)

最佳艺术指导(提名)

└──Yoriko Ito (id:1309060)

最佳角色设计(提名)

└──克雷格·凯尔曼 (id:1288339)

最佳动画效果(提名)

第13届中国电影华表奖 (2009)

优秀译制片奖(提名)

  1. 合集文件列表:

  2. 1.Madagascar.3.Europes.Most.Wanted.2012.BluRay.1080p.3Audio.TrueHD.7.1.x265.10bit-ALT.mkv 9.18GB

  3. 2.Madagascar.2005.BluRay.1080p.3Audio.TrueHD.5.1.x265.10bit-ALT.mkv 8.73GB

  4. 3.Madagascar.Escape.2.Africa.2008.BluRay.1080p.MultiAudio.TrueHD.5.1.x265.10bit-ALT.mkv 7.40GB

  5. 4.Penguins.of.Madagascar.2014.BluRay.1080p.2Audio.DTS-HD.MA.7.1.x265.10bit-ALT.mkv 7.60GB


复制代码

  1. ##### MediaInfo ######

  2. General

  3. Unique ID : 142060931035356527145054015870778050769 (0x6ADFF0AA730FA1D418CB6C236CF988D1)

  4. Complete name : Madagascar.3.Europes.Most.Wanted.2012.BluRay.1080p.3Audio.TrueHD.7.1.x265.10bit-BeiTai.mkv

  5. Format : Matroska

  6. Format version : Version 4

  7. File size : 9.18 GiB

  8. Duration : 1 h 33 min

  9. Overall bit rate mode : Variable

  10. Overall bit rate : 14.1 Mb/s

  11. Encoded date : UTC 2021-02-03 08:22:49

  12. Writing application : mkvmerge v49.0.0 ('Sick Of Losing Soulmates') 64-bit

  13. Writing library : libebml v1.4.0 + libmatroska v1.6.1

  14. Video

  15. ID : 1

  16. Format : HEVC

  17. Format/Info : High Efficiency Video Coding

  18. Format profile : Main [email protected]@High

  19. Codec ID : V_MPEGH/ISO/HEVC

  20. Duration : 1 h 33 min

  21. Bit rate : 7 391 kb/s

  22. Width : 1 920 pixels

  23. Height : 1 080 pixels

  24. Display aspect ratio : 16:9

  25. Frame rate mode : Constant

  26. Frame rate : 23.976 (24000/1001/53354) FPS

  27. Color space : YUV

  28. Chroma subsampling : 4:2:0

  29. Bit depth : 10 bits

  30. Bits/(Pixel*Frame) : 0.149

  31. Stream size : 4.82 GiB (53%)

  32. Title : HEVC, [email protected]@High, 24/1.001 fps @ 7391 kbps

  33. Writing library : x265 3.4+14-gd419c7152:[Windows][GCC 10.2.0][64 bit] 10bit

  34. Encoding settings : cpuid=533541111039 / frame-threads=5 / numa-pools=44,44 / wpp / pmode / pme / no-psnr / no-ssim / log-level=2 / input-csp=1 / input-res=1920x1080 / interlace=0 / total-frames=134366 / level-idc=51 / high-tier=1 / uhd-bd=0 / ref=5 / no-allow-non-conformance / no-repeat-headers / annexb / no-aud / no-hrd / info / hash=0 / no-temporal-layers / open-gop / min-keyint=24 / keyint=240 / gop-lookahead=0 / bframes=6 / b-adapt=2 / b-pyramid / bframe-bias=0 / rc-lookahead=40 / lookahead-slices=0 / NTMzNTQ=uuDQuD2mJt9fsCf / scenecut=40 / hist-scenecut=0 / radl=0 / no-splice / no-intra-refresh / ctu=32 / min-cu-size=8 / no-rect / no-amp / max-tu-size=32 / tu-inter-depth=3 / tu-intra-depth=3 / limit-tu=4 / rdoq-level=2 / dynamic-rd=0.00 / no-ssim-rd / signhide / no-tskip / nr-intra=0 / nr-inter=0 / no-constrained-intra / no-strong-intra-smoothing / max-merge=4 / limit-refs=1 / limit-modes / me=3 / subme=4 / merange=25 / temporal-mvp / no-frame-dup / no-hme / weightp / weightb / no-analyze-src-pics / deblock=-3:-3 / no-sao / no-sao-non-deblock / rd=6 / selective-sao=0 / no-early-skip / rskip / no-fast-intra / no-tskip-fast / no-cu-lossless / b-intra / no-splitrd-skip / rdpenalty=0 / psy-rd=2.00 / psy-rdoq=1.00 / no-rd-refine / no-lossless / cbqpoffs=0 / crqpoffs=0 / rc=crf / crf=18.5 / qcomp=0.65 / qpstep=4 / stats-write=0 / stats-read=0 / vbv-maxrate=80000 / vbv-bufsize=80000 / vbv-init=0.9 / crf-max=0.0 / crf-min=0.0 / ipratio=1.40 / pbratio=1.30 / aq-mode=2 / aq-strength=0.85 / cutree / zone-count=0 / no-strict-cbr / qg-size=32 / no-rc-grain / qpmax=69 / qpmin=0 / no-const-vbv / sar=1 / overscan=0 / videoformat=5 / range=0 / colorprim=1 / transfer=1 / colormatrix=1 / chromaloc=0 / display-window=0 / cll=0,0 / min-luma=0 / max-luma=1023 / log2-max-poc-lsb=8 / vui-timing-info / vui-hrd-info / slices=1 / no-opt-qp-pps / no-opt-ref-list-length-pps / no-multi-pass-opt-rps / scenecut-bias=0.05 / hist-threshold=0.03 / no-opt-cu-delta-qp / no-aq-motion / no-hdr10 / no-hdr10-opt / no-dhdr10-opt / no-idr-recovery-sei / analysis-reuse-level=0 / analysis-save-reuse-level=0 / analysis-load-reuse-level=0 / scale-factor=0 / refine-intra=0 / refine-inter=0 / refine-mv=1 / refine-ctu-distortion=0 / no-limit-sao / ctu-info=0 / no-lowpass-dct / refine-analysis-type=0 / copy-pic=1 / max-ausize-factor=1.0 / no-dynamic-refine / no-single-sei / no-hevc-aq / no-svt / no-field / qp-adaptation-range=1.00 / no-scenecut-aware-qpconformance-window-offsets / right=0 / bottom=0 / NTMzNTQ= / decoder-max-rate=0

  35. Language : English

  36. Default : Yes

  37. Forced : No

  38. Color range : Limited

  39. Color primaries : BT.709

  40. Transfer characteristics : BT.709

  41. Matrix coefficients : BT.709

  42. Audio #1

  43. ID : 2

  44. Format : MLP FBA

  45. Format/Info : Meridian Lossless Packing FBA

  46. Commercial name : Dolby TrueHD

  47. Codec ID : A_TRUEHD

  48. Duration : 1 h 33 min

  49. Bit rate mode : Variable

  50. Bit rate : 4 573 kb/s

  51. Maximum bit rate : 5 997 kb/s

  52. Channel(s) : 8 channels

  53. Channel layout : L R C LFE Ls Rs Lb Rb

  54. Sampling rate : 48.0 kHz

  55. Frame rate : 1 200.000 FPS (40 SPF)

  56. Compression mode : Lossless

  57. Stream size : 2.98 GiB (33%)

  58. Title : English Dolby TrueHD 7.1 @ @ 4573 kbps

  59. Language : English

  60. Default : Yes

  61. Forced : No

  62. Audio #2

  63. ID : 3

  64. Format : AC-3

  65. Format/Info : Audio Coding 3

  66. Commercial name : Dolby Digital

  67. Codec ID : A_AC3

  68. Duration : 1 h 33 min

  69. Bit rate mode : Constant

  70. Bit rate : 640 kb/s

  71. Channel(s) : 6 channels

  72. Channel layout : L R C LFE Ls Rs

  73. Sampling rate : 48.0 kHz

  74. Frame rate : 31.250 FPS (1536 SPF)

  75. Compression mode : Lossy

  76. Stream size : 428 MiB (5%)

  77. Title : English Dolby Digital Audio 5.1 @ 640 kbps

  78. Language : English

  79. Service kind : Complete Main

  80. Default : No

  81. Forced : No

  82. Audio #3

  83. ID : 4

  84. Format : AC-3

  85. Format/Info : Audio Coding 3

  86. Commercial name : Dolby Digital

  87. Codec ID : A_AC3

  88. Duration : 1 h 33 min

  89. Bit rate mode : Constant

  90. Bit rate : 640 kb/s

  91. Channel(s) : 6 channels

  92. Channel layout : L R C LFE Ls Rs

  93. Sampling rate : 48.0 kHz

  94. Frame rate : 31.250 FPS (1536 SPF)

  95. Compression mode : Lossy

  96. Stream size : 428 MiB (5%)

  97. Title : Cantonese Dolby Digital Audio 5.1 @ 640 kbps

  98. Language : Chinese

  99. Service kind : Complete Main

  100. Default : No

  101. Forced : No

  102. Audio #4

  103. ID : 5

  104. Format : AC-3

  105. Format/Info : Audio Coding 3

  106. Commercial name : Dolby Digital

  107. Codec ID : A_AC3

  108. Duration : 1 h 33 min

  109. Bit rate mode : Constant

  110. Bit rate : 640 kb/s

  111. Channel(s) : 6 channels

  112. Channel layout : L R C LFE Ls Rs

  113. Sampling rate : 48.0 kHz

  114. Frame rate : 31.250 FPS (1536 SPF)

  115. Compression mode : Lossy

  116. Stream size : 428 MiB (5%)

  117. Title : Mandarin Dolby Digital Audio 5.1 @ 640 kbps

  118. Language : Chinese

  119. Service kind : Complete Main

  120. Default : No

  121. Forced : No

  122. Text #1

  123. ID : 6

  124. Format : PGS

  125. Codec ID : S_HDMV/PGS

  126. Codec ID/Info : Picture based subtitle format used on BDs/HD-DVDs

  127. Duration : 1 h 32 min

  128. Bit rate : 45.2 kb/s

  129. Count of elements : 2322

  130. Stream size : 29.9 MiB (0%)

  131. Title : Eng/SUP

  132. Language : English

  133. Default : No

  134. Forced : No

  135. Text #2

  136. ID : 7

  137. Format : PGS

  138. Codec ID : S_HDMV/PGS

  139. Codec ID/Info : Picture based subtitle format used on BDs/HD-DVDs

  140. Duration : 1 h 32 min

  141. Bit rate : 33.9 kb/s

  142. Count of elements : 2344

  143. Stream size : 22.5 MiB (0%)

  144. Title : Cht/SUP 原盘繁体(HK)

  145. Language : Chinese

  146. Default : No

  147. Forced : No

  148. Text #3

  149. ID : 8

  150. Format : PGS

  151. Codec ID : S_HDMV/PGS

  152. Codec ID/Info : Picture based subtitle format used on BDs/HD-DVDs

  153. Duration : 1 h 32 min

  154. Bit rate : 32.9 kb/s

  155. Count of elements : 2332

  156. Stream size : 21.8 MiB (0%)

  157. Title : Cht/SUP 原盘繁体(TW)

  158. Language : Chinese

  159. Default : Yes

  160. Forced : No

  161. Menu

  162. 00:00:00.000 : :第 01 章

  163. 00:05:16.314 : :第 02 章

  164. 00:10:51.984 : :第 03 章

  165. 00:19:46.309 : :第 04 章

  166. 00:27:49.834 : :第 05 章

  167. 00:32:50.550 : :第 06 章

  168. 00:40:34.974 : :第 07 章

  169. 00:46:51.974 : :第 08 章

  170. 00:52:00.534 : :第 09 章

  171. 00:58:55.155 : :第 10 章

  172. 01:00:23.411 : :第 11 章

  173. 01:04:19.313 : :第 12 章

  174. 01:10:59.671 : :第 13 章

  175. 01:15:30.317 : :第 14 章

  176. 01:21:09.780 : :第 15 章

  177. 01:22:48.630 : :第 16 章


复制代码




文件下载


除非特别注明,本文『马达加斯加[共4部合集][国粤英多音轨/繁英字幕].Madagascar.2005-2014.BluRay.1080p.MultiAudio.DTS-HD.MA.7.1.x265.10bit-ALT 』来源于互联网机器人自动抓取,非本站原创。 浮游电影网不对本文拥有版权,如有侵犯,请联系邮箱:fuyouu#yandex.com[#换成@]投诉。我们会在15个工作日内删除。 但烦请转载时请标明出处:“本文转载于『浮游电影网』,原文地址:https://www.fuyouu.com/21334.html

评论吧骚年!

发表你的见解   

昵称*

E-mail*(建议输入,以便收到博主回复的提示邮件)

验证码*

您可以使用eMule或eMule Mod(Windows)、aMule(Win、Linux、Mac)等软件下载eD2k链接。。
eMule收藏集(.emulecollection)文件是您选中的所有链接的列表文件。eMule可以直接下载它们。
按住SHIFT键选择可以选中多个选择框。
可用文件名和大小选择器来选择文件。
文件名选择器帮您根据文件名称或后缀来选择文件。不分大小写。
符号使用:
和:空格( )、+
不包含:-
或:|
转义:一对英文引号("");
匹配开头:^
匹配结尾:$
例如:
选中所有名称中包含有“eMule”或“0.49c”字眼,但不包含有“exe”字眼的:emule|0.49c -exe
选中所有名称的开头是“eMule”,结尾是“0.49c”的:^emule 0.49c$
选中所有名称中带有“eMule 0.49c”的(必须是“eMule 0.49c”,中间没有别的字符,不能是“eMule fake 0.49c”),需要转义:"emule 0.49c"
大小选择器帮您根据文件大小选择文件。