当前位置: 首页 >> 欧美电影 >> 弯刀杀戮[共2部合集][繁英字幕].Machete.1-2.2010-2013.BluRay.1080p.DTS-HD.MA5.1.x265.10bit-ALT 23.18GB >> 正文

弯刀杀戮[共2部合集][繁英字幕].Machete.1-2.2010-2013.BluRay.1080p.DTS-HD.MA5.1.x265.10bit-ALT 23.18GB

2022年04月13日 22:32:02     电影发布:来源于网络     电影分类:欧美电影     评论(0)    

弯刀杀戮[共2部合集][繁英字幕].Machete.1 2.2010 2013.BluRay.1080p.DTS HD.MA5.1.x265.10bit ALT 23.18GB  欧美电影  第1张

◎译 名 弯刀杀戮 / 索女·重炮·神经刀(港) / 绝煞刀锋2(台) / 弯刀:风云再起 / 杀千刀 / 弯刀2

◎片 名 Machete Kills

◎年 代 2013

◎产 地 美国 / 俄罗斯

◎类 别 动作 / 惊悚 / 犯罪

◎语 言 英语

◎上映日期 2013-10-11(美国)

◎IMDb链接 https://www.imdb.com/title/tt2002718/

◎豆瓣评分 5.9/10 (14862人评价)

◎豆瓣链接 https://movie.douban.com/subject/10342838/

◎片 长 107分钟

◎导 演 罗伯特·罗德里格兹 Robert Rodriguez (id:1019016)

◎编 剧 罗伯特·罗德里格兹 Robert Rodriguez (id:1019016)

Marcel Rodriguez Marcel Rodriguez (id:1023856)

◎演 员 丹尼·特雷霍 Danny Trejo (id:1044721)

梅尔·吉布森 Mel Gibson (id:1054530)

德米安·比齐尔 Demián Bichir (id:1022762)

艾梅柏·希尔德 Amber Heard (id:1044702)

米歇尔·罗德里格兹 Michelle Rodriguez (id:1025174)

索菲娅·维加拉 Sofía Vergara (id:1055987)

查理·辛 Charlie Sheen (id:1049490)

Lady Gaga (id:1269788)

安东尼奥·班德拉斯 Antonio Banderas (id:1022582)

沃尔顿·戈金斯 Walton Goggins (id:1098551)

小库珀·古丁 Cuba Gooding Jr. (id:1013794)

凡妮莎·哈金斯 Vanessa Hudgens (id:1025150)

阿丽夏·维加 Alexa Vega (id:1049505)

马克·扎罗 Marko Zaror (id:1018111)

汤姆·萨维尼 Tom Savini (id:1041207)

威廉姆·赛德勒 William Sadler (id:1000095)

胡里奥·奥斯卡·门乔索 Julio Oscar Mechoso (id:1116784)

考莉·埃尔南德斯 Callie Hernandez (id:1339675)

比利·布莱尔 Billy Blair (id:1274695)

塞缪尔·戴维斯 Samuel Davis (id:1388405)

Emmy Robbin Emmy Robbin (id:1238220)

吉米·冈萨雷斯 Jimmy Gonzales (id:1382505)

艾丽·拉蒙特 Elle LaMont (id:1357869)

费利克斯·萨贝茨 Felix Sabates (id:1274694)

豪尔赫·A·希门尼斯 Jorge A. Jimenez (id:1311800)

亚历杭德罗·安东尼奥 Alejandro Antonio (id:1274692)

山姆麦地那 Sam Medina (id:1336516)

伊莱克特拉·阿维兰 Electra Avellan (id:1022796)

埃莉斯·阿维兰 Elise Avellan (id:1239886)

玛西·麦迪森 Marci Madison (id:1357868)

科里·伯顿 Corey Burton (id:1069602)

伊隆·马斯克 Elon Musk (id:1348829)

杰西卡·阿尔芭 Jessica Alba (id:1004861)

埃德加·阿雷拉 Edgar Arreola (id:1377670)

约翰·保罗·德约里尔 John Paul DeJoria (id:1000770)

迈克·加萨威 Mike Gassaway (id:1323744)

杰西·詹姆斯 Jesse James (id:1205038)

切奇·马林 Cheech Marin (id:1010603)

J·J·佩里 J.J. Perry (id:1294335)

Daniel Zubiate Daniel Zubiate (id:1207809)

托尼·贾 Tony Jaa (id:1004643)

艾什莉·伍德 Ashley Wood (id:1351166)

罗伯特·罗德里格兹 Robert Rodriguez (id:1019016)

罗伯特·罗德里格兹 Robert Rodriguez (id:1019016)

罗伯特·罗德里格兹 Robert Rodriguez (id:1019016)

Rebecca A. Rodriguez Rebecca A. Rodriguez (id:1170172)

罗伯特·罗德里格兹 Robert Rodriguez (id:1019016)

扎克·贾德森 Zack Judson (id:1411059)

罗伯特·罗德里格兹 Robert Rodriguez (id:1019016)

◎简 介

身怀绝技的弯刀(丹尼·特乔 Danny Trejo 饰)在追查犯罪组织卡特尔的行动中,其女友兼搭档ICE特工莎塔娜(杰西卡·阿尔芭 Jessica Alba 饰)不慎遇害,弯刀也被作为杀人凶手判处绞刑。关键时刻,美国总统秘密将其招至华府,命弯刀前往美国和墨西哥的边界,调查革命武装组织头目马科斯·门德斯革命者(德米安·比齐尔 Demián Bichir 饰)是否有袭击美国的打算,一旦证据确凿即可将其抹杀。弯刀率先与圣·安东尼奥小姐(艾梅柏·希尔德 Amber Heard 饰)接洽,随后潜入墨西哥见到门德斯。此时的门德斯仿佛已经人格分裂,他将导弹的控制系统与自己的心脏相连,一旦遇害导弹便自动飞向美国华府,而他的人头又高达千万美金,以至于弯刀被迫担负起保护门德斯性命的任务。

返回美国的道路杀机四伏,凶险非常,更有意想不到的阴谋等待着他……

◎获奖情况 (共1项)

第34届金酸莓奖 (2014)

最差女配角(提名)

└──Lady Gaga (id:1269788)

  1. 合集文件列表:

  2. 1.Machete.2010.BluRay.1080p.DTS-HD.MA5.1.x265.10bit-ALT.mkv 12.15GB

  3. 2.Machete.Kills.2013.BluRay.1080p.DTS-HD.MA5.1.x265.10bit-ALT.mkv 11.02GB


复制代码

  1. ##### MediaInfo ######

  2. General

  3. Unique ID : 178669345484257636543067359184374960954 (0x866A76D9D2C4C2C811E0DE1EE4A3933A)

  4. Complete name : Machete.2010.BluRay.1080p.DTS-HD.MA5.1.x265.10bit-BeiTai.mkv

  5. Format : Matroska

  6. Format version : Version 4

  7. File size : 12.2 GiB

  8. Duration : 1 h 44 min

  9. Overall bit rate mode : Variable

  10. Overall bit rate : 16.6 Mb/s

  11. Encoded date : UTC 2020-08-02 06:54:43

  12. Writing application : mkvmerge v48.0.0 ('Fortress Around Your Heart') 64-bit

  13. Writing library : libebml v1.4.0 + libmatroska v1.6.0

  14. Video

  15. ID : 1

  16. Format : HEVC

  17. Format/Info : High Efficiency Video Coding

  18. Format profile : Main [email protected]@High

  19. Codec ID : V_MPEGH/ISO/HEVC

  20. Duration : 1 h 44 min

  21. Bit rate : 12.4 Mb/s

  22. Width : 1 920 pixels

  23. Height : 1 040 pixels

  24. Display aspect ratio : 1.85:1

  25. Frame rate mode : Constant

  26. Frame rate : 23.976 (24000/1001/53354) FPS

  27. Color space : YUV

  28. Chroma subsampling : 4:2:0

  29. Bit depth : 10 bits

  30. Bits/(Pixel*Frame) : 0.258

  31. Stream size : 9.05 GiB (75%)

  32. Title : HEVC, [email protected]@High, 24/1.001 fps @ 12361 kbps

  33. Writing library : x265 3.3+1-g396395b2b:[Windows][GCC 9.2.0][64 bit] 10bit

  34. Encoding settings : cpuid=533541111039 / frame-threads=3 / numa-pools=12 / wpp / pmode / pme / no-psnr / no-ssim / log-level=2 / input-csp=1 / input-res=1920x1040 / interlace=0 / total-frames=150840 / level-idc=51 / high-tier=1 / uhd-bd=0 / ref=5 / no-allow-non-conformance / no-repeat-headers / annexb / no-aud / no-hrd / info / hash=0 / no-temporal-layers / open-gop / min-keyint=24 / keyint=240 / gop-lookahead=0 / bframes=6 / b-adapt=2 / b-pyramid / bframe-bias=0 / rc-lookahead=40 / lookahead-slices=0 / NTMzNTQ=uuDQuD2mJt9fsCf / scenecut=40 / hist-scenecut=0 / radl=0 / no-splice / no-intra-refresh / ctu=32 / min-cu-size=8 / no-rect / no-amp / max-tu-size=32 / tu-inter-depth=3 / tu-intra-depth=3 / limit-tu=4 / rdoq-level=2 / dynamic-rd=0.00 / no-ssim-rd / signhide / no-tskip / nr-intra=0 / nr-inter=0 / no-constrained-intra / no-strong-intra-smoothing / max-merge=4 / limit-refs=1 / limit-modes / me=3 / subme=4 / merange=25 / temporal-mvp / no-frame-dup / no-hme / weightp / weightb / no-analyze-src-pics / deblock=-3:-3 / no-sao / no-sao-non-deblock / rd=6 / selective-sao=0 / no-early-skip / rskip / no-fast-intra / no-tskip-fast / no-cu-lossless / b-intra / no-splitrd-skip / rdpenalty=0 / psy-rd=2.00 / psy-rdoq=1.00 / no-rd-refine / no-lossless / cbqpoffs=0 / crqpoffs=0 / rc=crf / crf=21.0 / qcomp=0.65 / qpstep=4 / stats-write=0 / stats-read=0 / vbv-maxrate=80000 / vbv-bufsize=80000 / vbv-init=0.9 / crf-max=0.0 / crf-min=0.0 / ipratio=1.40 / pbratio=1.30 / aq-mode=2 / aq-strength=0.85 / cutree / zone-count=0 / no-strict-cbr / qg-size=32 / no-rc-grain / qpmax=69 / qpmin=0 / no-const-vbv / sar=1 / overscan=0 / videoformat=5 / range=0 / colorprim=1 / transfer=1 / colormatrix=1 / chromaloc=0 / display-window=0 / cll=0,0 / min-luma=0 / max-luma=1023 / log2-max-poc-lsb=8 / vui-timing-info / vui-hrd-info / slices=1 / no-opt-qp-pps / no-opt-ref-list-length-pps / no-multi-pass-opt-rps / scenecut-bias=0.05 / hist-threshold=0.01 / no-opt-cu-delta-qp / no-aq-motion / no-hdr10 / no-hdr10-opt / no-dhdr10-opt / no-idr-recovery-sei / analysis-reuse-level=0 / analysis-save-reuse-level=0 / analysis-load-reuse-level=0 / scale-factor=0 / refine-intra=0 / refine-inter=0 / refine-mv=1 / refine-ctu-distortion=0 / no-limit-sao / ctu-info=0 / no-lowpass-dct / refine-analysis-type=0 / copy-pic=1 / max-ausize-factor=1.0 / no-dynamic-refine / no-single-sei / no-hevc-aq / no-svt / no-field / qp-adaptation-range=1.00 / no-scenecut-aware-qpconformance-window-offsets / right=0 / bottom=0 / NTMzNTQ=

  35. Language : English

  36. Default : Yes

  37. Forced : No

  38. Color range : Limited

  39. Color primaries : BT.709

  40. Transfer characteristics : BT.709

  41. Matrix coefficients : BT.709

  42. Audio

  43. ID : 2

  44. Format : DTS XLL

  45. Format/Info : Digital Theater Systems

  46. Commercial name : DTS-HD Master Audio

  47. Codec ID : A_DTS

  48. Duration : 1 h 44 min

  49. Bit rate mode : Variable

  50. Bit rate : 4 173 kb/s

  51. Channel(s) : 6 channels

  52. Channel layout : C L R Ls Rs LFE

  53. Sampling rate : 48.0 kHz

  54. Frame rate : 93.750 FPS (512 SPF)

  55. Bit depth : 24 bits

  56. Compression mode : Lossless

  57. Stream size : 3.06 GiB (25%)

  58. Title : English DTS-HD Master Audio 5.1 @ 4173 kbps

  59. Language : English

  60. Default : Yes

  61. Forced : No

  62. Text #1

  63. ID : 3

  64. Format : PGS

  65. Codec ID : S_HDMV/PGS

  66. Codec ID/Info : Picture based subtitle format used on BDs/HD-DVDs

  67. Duration : 1 h 39 min

  68. Bit rate : 32.6 kb/s

  69. Count of elements : 2108

  70. Stream size : 23.2 MiB (0%)

  71. Title : Eng/SUP

  72. Language : English

  73. Default : No

  74. Forced : No

  75. Text #2

  76. ID : 4

  77. Format : PGS

  78. Codec ID : S_HDMV/PGS

  79. Codec ID/Info : Picture based subtitle format used on BDs/HD-DVDs

  80. Duration : 1 h 40 min

  81. Bit rate : 24.1 kb/s

  82. Count of elements : 2188

  83. Stream size : 17.3 MiB (0%)

  84. Title : Cht/SUP 原盘繁体

  85. Language : Chinese

  86. Default : Yes

  87. Forced : No

  88. Menu

  89. 00:00:00.000 : en:第 01 章

  90. 00:07:35.455 : en:第 02 章

  91. 00:12:31.542 : en:第 03 章

  92. 00:20:37.027 : en:第 04 章

  93. 00:26:08.984 : en:第 05 章

  94. 00:33:00.020 : en:第 06 章

  95. 00:37:46.139 : en:第 07 章

  96. 00:44:04.475 : en:第 08 章

  97. 00:50:45.459 : en:第 09 章

  98. 00:56:23.964 : en:第 10 章

  99. 01:02:41.049 : en:第 11 章

  100. 01:09:45.014 : en:第 12 章

  101. 01:14:56.701 : en:第 13 章

  102. 01:21:30.135 : en:第 14 章

  103. 01:27:05.262 : en:第 15 章

  104. 01:33:49.040 : en:第 16 章


复制代码



文件下载


除非特别注明,本文『弯刀杀戮[共2部合集][繁英字幕].Machete.1-2.2010-2013.BluRay.1080p.DTS-HD.MA5.1.x265.10bit-ALT 23.18GB』来源于互联网机器人自动抓取,非本站原创。 浮游电影网不对本文拥有版权,如有侵犯,请联系邮箱:fuyouu#yandex.com[#换成@]投诉。我们会在15个工作日内删除。 但烦请转载时请标明出处:“本文转载于『浮游电影网』,原文地址:https://www.fuyouu.com/21333.html

评论吧骚年!

发表你的见解   

昵称*

E-mail*(建议输入,以便收到博主回复的提示邮件)

验证码*

您可以使用eMule或eMule Mod(Windows)、aMule(Win、Linux、Mac)等软件下载eD2k链接。。
eMule收藏集(.emulecollection)文件是您选中的所有链接的列表文件。eMule可以直接下载它们。
按住SHIFT键选择可以选中多个选择框。
可用文件名和大小选择器来选择文件。
文件名选择器帮您根据文件名称或后缀来选择文件。不分大小写。
符号使用:
和:空格( )、+
不包含:-
或:|
转义:一对英文引号("");
匹配开头:^
匹配结尾:$
例如:
选中所有名称中包含有“eMule”或“0.49c”字眼,但不包含有“exe”字眼的:emule|0.49c -exe
选中所有名称的开头是“eMule”,结尾是“0.49c”的:^emule 0.49c$
选中所有名称中带有“eMule 0.49c”的(必须是“eMule 0.49c”,中间没有别的字符,不能是“eMule fake 0.49c”),需要转义:"emule 0.49c"
大小选择器帮您根据文件大小选择文件。