当前位置: 首页 >> 港台电影 >> 新扎师妹[共3部合集][国粤英多音轨/简繁英字幕].Love.Undercover.1-3.2002-2006.BluRay.1080p.2Audio.TrueHD.5.1.x265.10bit-AL >> 正文

新扎师妹[共3部合集][国粤英多音轨/简繁英字幕].Love.Undercover.1-3.2002-2006.BluRay.1080p.2Audio.TrueHD.5.1.x265.10bit-AL

2022年04月13日 22:29:36     电影发布:来源于网络     电影分类:港台电影     评论(0)    

新扎师妹[共3部合集][国粤英多音轨/简繁英字幕].Love.Undercover.1 3.2002 2006.BluRay.1080p.2Audio.TrueHD.5.1.x265.10bit AL  港台电影  第1张

◎译 名 新扎师妹 / Love Undercover / Sun jaat si mui

◎片 名 新紮師妹

◎年 代 2002

◎产 地 中国香港

◎类 别 喜剧 / 爱情

◎语 言 粤语

◎上映日期 2002-03-07(中国香港)

◎IMDb链接 https://www.imdb.com/title/tt0367104/

◎豆瓣评分 7.9/10 (99680人评价)

◎豆瓣链接 https://movie.douban.com/subject/1308655/

◎片 长 102分钟

◎导 演 马伟豪 Joe Ma (id:1290574)

◎编 剧 马伟豪 Joe Ma (id:1290574)

陈咏燊 Sunny Chan (id:1375202)

◎演 员 杨千嬅 Miriam Yeung (id:1173971)

吴彦祖 Daniel Wu (id:1027502)

许绍雄 Siu-Hung Hui (id:1274449)

黄浩然 Raymond Wong Ho-Yin (id:1051740)

森美 Sammy Leung (id:1038992)

周骢 Chung Chow (id:1316526)

邹凯光 Matt Chow (id:1275121)

李兆基 Siu-Kei Lee (id:1275475)

麦兆辉 Alan Mak (id:1126158)

邱琦雯 Clair Chiu (id:1315468)

叶伟信 Wilson Yip (id:1274472)

黄伟文 Wyman Wong (id:1020972)

吴志雄 Chi Hung Ng (id:1316796)

袁富华 Fu-wah Yuen (id:1359508)

火火 Fire Lee Ka Wing (id:1322557)

李耀明 Joe Lee Yiu-ming (id:1317905)

蔡洁雯 Rubyanne Choi Kit Man (id:1321563)

茜利妹 Hyper BB (id:1411581)

查小欣 Eileen Cha (id:1448062)

黄泆潼 Yat Tung Wong (id:1397265)

江玉仪 Ivy Kong (id:1275631)

◎简 介

方丽娟(杨千嬅饰)一直想成为一名警察,几经失败才考近了警校。虽然她在警校中刻苦学习,可是她天生并不是当警察的料,成绩不理想以外还常常笑料百出。毕业后,被调配到失物认领处工作,令她心里很不是滋味。

刚好重案组在计划一宗缉拿黑帮的案子中需要一名生面孔的卧底,丽娟误打误撞被任命执行这次的任务。行动的过程中,她与黑帮老大区海文(吴彦祖饰)结缘,刚开始海文觉得丽娟的身世可怜,打算给予帮助。谁料两人后来互生爱意,阿祖百般体贴,令方丽娟觉得左右为难,没想到自己假戏真做了,方丽娟最后选择了什么样的决定呢?

  1. 合集文件列表:

  2. 1.Love.Undercover.2.2003.BluRay.1080p.2Audio.TrueHD.5.1.x265.10bit-ALT.mkv 13.12GB

  3. 2.Love.Undercover.3.2006.BluRay.1080p.2Audio.TrueHD.5.1.x265.10bit-ALT.mkv 11.89GB

  4. 3.Love.Undercover.2002.BluRay.1080p.2Audio.TrueHD.5.1.x265.10bit-ALT.mkv 10.17GB


复制代码

  1. ##### MediaInfo ######

  2. General

  3. Unique ID : 225683713706381729522900027684947944009 (0xA9C91A2B0246F77EE0C9E4FE25DEE249)

  4. Complete name : Love.Undercover.2.2003.BluRay.1080p.2Audio.TrueHD.5.1.x265.10bit-BeiTai.mkv

  5. Format : Matroska

  6. Format version : Version 4

  7. File size : 13.1 GiB

  8. Duration : 1 h 40 min

  9. Overall bit rate mode : Variable

  10. Overall bit rate : 18.7 Mb/s

  11. Encoded date : UTC 2020-11-09 03:31:26

  12. Writing application : mkvmerge v49.0.0 ('Sick Of Losing Soulmates') 64-bit

  13. Writing library : libebml v1.4.0 + libmatroska v1.6.1

  14. Video

  15. ID : 1

  16. Format : HEVC

  17. Format/Info : High Efficiency Video Coding

  18. Format profile : Main [email protected]@High

  19. Codec ID : V_MPEGH/ISO/HEVC

  20. Duration : 1 h 40 min

  21. Bit rate : 11.5 Mb/s

  22. Width : 1 920 pixels

  23. Height : 1 080 pixels

  24. Display aspect ratio : 16:9

  25. Frame rate mode : Constant

  26. Frame rate : 24.000 FPS

  27. Color space : YUV

  28. Chroma subsampling : 4:2:0

  29. Bit depth : 10 bits

  30. Bits/(Pixel*Frame) : 0.231

  31. Stream size : 8.04 GiB (61%)

  32. Title : HEVC, [email protected]@High, 24 fps @ 11492 kbps

  33. Writing library : x265 3.4+14-gd419c7152:[Windows][GCC 10.2.0][64 bit] 10bit

  34. Encoding settings : cpuid=533541111039 / frame-threads=5 / numa-pools=44,44 / wpp / pmode / pme / no-psnr / no-ssim / log-level=2 / input-csp=1 / input-res=1920x1080 / interlace=0 / total-frames=144284 / level-idc=51 / high-tier=1 / uhd-bd=0 / ref=5 / no-allow-non-conformance / no-repeat-headers / annexb / no-aud / no-hrd / info / hash=0 / no-temporal-layers / open-gop / min-keyint=24 / keyint=240 / gop-lookahead=0 / bframes=6 / b-adapt=2 / b-pyramid / bframe-bias=0 / rc-lookahead=40 / lookahead-slices=0 / NTMzNTQ=uuDQuD2mJt9fsCf / scenecut=40 / hist-scenecut=0 / radl=0 / no-splice / no-intra-refresh / ctu=32 / min-cu-size=8 / no-rect / no-amp / max-tu-size=32 / tu-inter-depth=3 / tu-intra-depth=3 / limit-tu=4 / rdoq-level=2 / dynamic-rd=0.00 / no-ssim-rd / signhide / no-tskip / nr-intra=0 / nr-inter=0 / no-constrained-intra / no-strong-intra-smoothing / max-merge=4 / limit-refs=1 / limit-modes / me=3 / subme=4 / merange=25 / temporal-mvp / no-frame-dup / no-hme / weightp / weightb / no-analyze-src-pics / deblock=-3:-3 / no-sao / no-sao-non-deblock / rd=6 / selective-sao=0 / no-early-skip / rskip / no-fast-intra / no-tskip-fast / no-cu-lossless / b-intra / no-splitrd-skip / rdpenalty=0 / psy-rd=2.00 / psy-rdoq=1.00 / no-rd-refine / no-lossless / cbqpoffs=0 / crqpoffs=0 / rc=crf / crf=20.0 / qcomp=0.65 / qpstep=4 / stats-write=0 / stats-read=0 / vbv-maxrate=80000 / vbv-bufsize=80000 / vbv-init=0.9 / crf-max=0.0 / crf-min=0.0 / ipratio=1.40 / pbratio=1.30 / aq-mode=2 / aq-strength=0.85 / cutree / zone-count=0 / no-strict-cbr / qg-size=32 / no-rc-grain / qpmax=69 / qpmin=0 / no-const-vbv / sar=1 / overscan=0 / videoformat=5 / range=0 / colorprim=1 / transfer=1 / colormatrix=1 / chromaloc=0 / display-window=0 / cll=0,0 / min-luma=0 / max-luma=1023 / log2-max-poc-lsb=8 / vui-timing-info / vui-hrd-info / slices=1 / no-opt-qp-pps / no-opt-ref-list-length-pps / no-multi-pass-opt-rps / scenecut-bias=0.05 / hist-threshold=0.03 / no-opt-cu-delta-qp / no-aq-motion / no-hdr10 / no-hdr10-opt / no-dhdr10-opt / no-idr-recovery-sei / analysis-reuse-level=0 / analysis-save-reuse-level=0 / analysis-load-reuse-level=0 / scale-factor=0 / refine-intra=0 / refine-inter=0 / refine-mv=1 / refine-ctu-distortion=0 / no-limit-sao / ctu-info=0 / no-lowpass-dct / refine-analysis-type=0 / copy-pic=1 / max-ausize-factor=1.0 / no-dynamic-refine / no-single-sei / no-hevc-aq / no-svt / no-field / qp-adaptation-range=1.00 / no-scenecut-aware-qpconformance-window-offsets / right=0 / bottom=0 / NTMzNTQ= / decoder-max-rate=0

  35. Language : English

  36. Default : Yes

  37. Forced : No

  38. Color range : Limited

  39. Color primaries : BT.709

  40. Transfer characteristics : BT.709

  41. Matrix coefficients : BT.709

  42. Audio #1

  43. ID : 2

  44. Format : MLP FBA

  45. Format/Info : Meridian Lossless Packing FBA

  46. Commercial name : Dolby TrueHD

  47. Codec ID : A_TRUEHD

  48. Duration : 1 h 40 min

  49. Bit rate mode : Variable

  50. Bit rate : 2 860 kb/s

  51. Maximum bit rate : 5 004 kb/s

  52. Channel(s) : 6 channels

  53. Channel layout : L R C LFE Ls Rs

  54. Sampling rate : 96.0 kHz

  55. Frame rate : 1 200.000 FPS (80 SPF)

  56. Compression mode : Lossless

  57. Stream size : 2.00 GiB (15%)

  58. Title : Cantonese Dolby TrueHD Audio 5.1 @ 3500 kbps

  59. Language : Chinese

  60. Default : Yes

  61. Forced : No

  62. Audio #2

  63. ID : 3

  64. Format : AC-3

  65. Format/Info : Audio Coding 3

  66. Commercial name : Dolby Digital

  67. Codec ID : A_AC3

  68. Duration : 1 h 40 min

  69. Bit rate mode : Constant

  70. Bit rate : 640 kb/s

  71. Channel(s) : 6 channels

  72. Channel layout : L R C LFE Ls Rs

  73. Sampling rate : 48.0 kHz

  74. Frame rate : 31.250 FPS (1536 SPF)

  75. Compression mode : Lossy

  76. Stream size : 459 MiB (3%)

  77. Title : Cantonese Dolby Digital Audio 5.1 @ 640 kbps

  78. Language : Chinese

  79. Service kind : Complete Main

  80. Default : No

  81. Forced : No

  82. Audio #3

  83. ID : 4

  84. Format : MLP FBA

  85. Format/Info : Meridian Lossless Packing FBA

  86. Commercial name : Dolby TrueHD

  87. Codec ID : A_TRUEHD

  88. Duration : 1 h 40 min

  89. Bit rate mode : Variable

  90. Bit rate : 2 888 kb/s

  91. Maximum bit rate : 5 004 kb/s

  92. Channel(s) : 6 channels

  93. Channel layout : L R C LFE Ls Rs

  94. Sampling rate : 96.0 kHz

  95. Frame rate : 1 200.000 FPS (80 SPF)

  96. Compression mode : Lossless

  97. Stream size : 2.02 GiB (15%)

  98. Title : Mandarin Dolby TrueHD Audio 5.1 @ 3528 kbps

  99. Language : Chinese

  100. Default : No

  101. Forced : No

  102. Audio #4

  103. ID : 5

  104. Format : AC-3

  105. Format/Info : Audio Coding 3

  106. Commercial name : Dolby Digital

  107. Codec ID : A_AC3

  108. Duration : 1 h 40 min

  109. Bit rate mode : Constant

  110. Bit rate : 640 kb/s

  111. Channel(s) : 6 channels

  112. Channel layout : L R C LFE Ls Rs

  113. Sampling rate : 48.0 kHz

  114. Frame rate : 31.250 FPS (1536 SPF)

  115. Compression mode : Lossy

  116. Stream size : 459 MiB (3%)

  117. Title : Mandarin Dolby Digital Audio 5.1 @ 640 kbps

  118. Language : Chinese

  119. Service kind : Complete Main

  120. Default : No

  121. Forced : No

  122. Text #1

  123. ID : 6

  124. Format : PGS

  125. Codec ID : S_HDMV/PGS

  126. Codec ID/Info : Picture based subtitle format used on BDs/HD-DVDs

  127. Duration : 1 h 34 min

  128. Bit rate : 33.9 kb/s

  129. Count of elements : 2346

  130. Stream size : 22.9 MiB (0%)

  131. Title : Cht/SUP 原盘繁体

  132. Language : Chinese

  133. Default : No

  134. Forced : No

  135. Text #2

  136. ID : 7

  137. Format : PGS

  138. Codec ID : S_HDMV/PGS

  139. Codec ID/Info : Picture based subtitle format used on BDs/HD-DVDs

  140. Duration : 1 h 34 min

  141. Bit rate : 31.5 kb/s

  142. Count of elements : 2347

  143. Stream size : 21.3 MiB (0%)

  144. Title : Chs/SUP 原盘简体

  145. Language : Chinese

  146. Default : Yes

  147. Forced : No

  148. Text #3

  149. ID : 8

  150. Format : PGS

  151. Codec ID : S_HDMV/PGS

  152. Codec ID/Info : Picture based subtitle format used on BDs/HD-DVDs

  153. Duration : 1 h 34 min

  154. Bit rate : 31.4 kb/s

  155. Count of elements : 2345

  156. Stream size : 21.3 MiB (0%)

  157. Title : Eng/SUP

  158. Language : English

  159. Default : No

  160. Forced : No

  161. Menu

  162. 00:00:00.000 : :第 01 章

  163. 00:13:54.875 : :第 02 章

  164. 00:19:40.125 : :第 03 章

  165. 00:30:16.042 : :第 04 章

  166. 00:38:40.292 : :第 05 章

  167. 00:52:23.708 : :第 06 章

  168. 00:58:13.708 : :第 07 章

  169. 01:05:32.708 : :第 08 章

  170. 01:13:29.458 : :第 09 章

  171. 01:19:54.875 : :第 10 章

  172. 01:26:14.792 : :第 11 章

  173. 01:34:08.750 : :第 12 章


复制代码



文件下载


除非特别注明,本文『新扎师妹[共3部合集][国粤英多音轨/简繁英字幕].Love.Undercover.1-3.2002-2006.BluRay.1080p.2Audio.TrueHD.5.1.x265.10bit-AL』来源于互联网机器人自动抓取,非本站原创。 浮游电影网不对本文拥有版权,如有侵犯,请联系邮箱:fuyouu#yandex.com[#换成@]投诉。我们会在15个工作日内删除。 但烦请转载时请标明出处:“本文转载于『浮游电影网』,原文地址:https://www.fuyouu.com/21332.html

评论吧骚年!

发表你的见解   

昵称*

E-mail*(建议输入,以便收到博主回复的提示邮件)

验证码*

您可以使用eMule或eMule Mod(Windows)、aMule(Win、Linux、Mac)等软件下载eD2k链接。。
eMule收藏集(.emulecollection)文件是您选中的所有链接的列表文件。eMule可以直接下载它们。
按住SHIFT键选择可以选中多个选择框。
可用文件名和大小选择器来选择文件。
文件名选择器帮您根据文件名称或后缀来选择文件。不分大小写。
符号使用:
和:空格( )、+
不包含:-
或:|
转义:一对英文引号("");
匹配开头:^
匹配结尾:$
例如:
选中所有名称中包含有“eMule”或“0.49c”字眼,但不包含有“exe”字眼的:emule|0.49c -exe
选中所有名称的开头是“eMule”,结尾是“0.49c”的:^emule 0.49c$
选中所有名称中带有“eMule 0.49c”的(必须是“eMule 0.49c”,中间没有别的字符,不能是“eMule fake 0.49c”),需要转义:"emule 0.49c"
大小选择器帮您根据文件大小选择文件。