当前位置: 首页 >> 海外电影 >> 第五元素[中文字幕].The.Fifth.Element.1997.2160p.HAMI.WEB-DL.AAC2.0.x264-CTRLWEB 15.96GB >> 正文

第五元素[中文字幕].The.Fifth.Element.1997.2160p.HAMI.WEB-DL.AAC2.0.x264-CTRLWEB 15.96GB

2022年04月13日 22:25:14     电影发布:来源于网络     电影分类:海外电影     评论(0)    

第五元素[中文字幕].The.Fifth.Element.1997.2160p.HAMI.WEB DL.AAC2.0.x264 CTRLWEB 15.96GB  海外电影  第1张

◎译 名 第五元素 / Le Cinquième élément / The 5th Element

◎片 名 The Fifth Element

◎年 代 1997

◎产 地 法国 / 英国 / 美国

◎类 别 动作 / 科幻 / 冒险

◎语 言 英语 / 瑞典语 / 德语 / 阿拉伯语 / 古埃及语

◎上映日期 1997-05-07(法国)

◎IMDb链接 https://www.imdb.com/title/tt0119116/

◎豆瓣评分 8.0/10 (188309人评价)

◎豆瓣链接 https://movie.douban.com/subject/1293531/

◎片 长 126分钟

◎导 演 吕克·贝松 Luc Besson (id:1031876)

◎编 剧 吕克·贝松 Luc Besson (id:1031876)

罗伯特·马克·卡门 Robert Mark Kamen (id:1288065)

◎演 员 布鲁斯·威利斯 Bruce Willis (id:1010509)

加里·奥德曼 Gary Oldman (id:1010507)

米拉·乔沃维奇 Milla Jovovich (id:1025154)

克里斯·塔克 Chris Tucker (id:1049514)

伊安·霍姆 Ian Holm (id:1049594)

卢克·贝里 Luke Perry (id:1027830)

布里翁·詹姆斯 Brion James (id:1032028)

汤米·利斯特 Tom Lister Jr. (id:1055750)

李·伊万斯 Lee Evans (id:1087397)

查理·科里德-米尔斯 Charlie Creed-Miles (id:1078768)

Tricky Tricky (id:1005069)

约翰·内威尔 John Neville (id:1048236)

约翰·布鲁塞尔 John Bluthal (id:1342604)

马修·卡索维茨 Mathieu Kassovitz (id:1022733)

克里斯托弗·法里班克 Christopher Fairbank (id:1085042)

麦温 Ma?wenn (id:1000208)

Kim Chan Kim Chan (id:1016739)

阿尔·马修斯 Al Matthews (id:1122237)

约翰·贝内特 John Bennett (id:1065079)

Richard Leaf Richard Leaf (id:1368953)

朱莉·T.华莱士 Julie T. Wallace (id:1160888)

Ivan Heng Ivan Heng (id:1368983)

蒂姆·迈克穆兰 Tim McMullan (id:1337651)

索妮塔·亨利 Sonita Henry (id:1093970)

Roger Monk Roger Monk (id:1292346)

帕特里斯·勒杜 Patrice Ledoux (id:1289638)

艾瑞克·塞拉 Eric Serra (id:1050343)

蒂埃里·阿博加斯特 Thierry Arbogast (id:1276547)

西尔维·兰德拉 Sylvie Landra (id:1289364)

安娜·平诺克 Anna Pinnock (id:1276358)

Michael Lamont Michael Lamont (id:1289331)

容.格瑞斯 Ron Gress (id:1285436)

玛姬·格雷 Maggie Gray (id:1285352)

Dan Weil Dan Weil (id:1300593)

Michelle Taylor Michelle Taylor (id:1304342)

Sue Love Sue Love (id:1290353)

邦尼·帕克尔 Bunny Parker (id:1293970)

阿曼达·奈特 Amanda Knight (id:1288749)

洛伊斯·布尔维尔 Lois Burwell (id:1276653)

宝琳·黑斯 Pauline Heys (id:1286585)

马克·凯奥耶 Mark Coulier (id:1281364)

帕斯卡尔·舒梅 Pascal Chaumeil (id:1315647)

西蒙·奥康纳 Simon O'Connor (id:1293392)

凯里·维尔加斯 Carey Villegas (id:1300081)

乔纳森·F·斯泰尔朗德 Jonathan F. Styrlund (id:1298589)

马克·斯泰特森 Mark Stetson (id:1298397)

丹·赖蒙 Dan Lemmon (id:1289780)

Daniel J. Lombardo Daniel J. Lombardo (id:1290253)

John E. Sasaki John E. Sasaki (id:1296724)

David Prescott David Prescott (id:1294866)

凯文·斯科特·麦克 Kevin Scott Mack (id:1290647)

Charles Meredith Charles Meredith (id:1291864)

肖恩·安德鲁·法登 Sean Andrew Faden (id:1283408)

罗科·帕西尼诺 Rocco Passionino (id:1294053)

雷莫·巴尔塞尔斯 Remo Balcells (id:1277760)

埃里克·巴尔巴 Eric Barba (id:1277851)

Laura Buff Laura Buff (id:1279586)

Seb Caudron Seb Caudron (id:1280300)

科林·德罗布尼斯 Colin Drobnis (id:1282732)

Crys Forsyth-Smith Crys Forsyth-Smith (id:1284000)

容.格瑞斯 Ron Gress (id:1285436)

布莱恩·吉尔 Bryan Grill (id:1285480)

◎简 介

一头红发,perfect的“第五元素”莉露(Milla Jovovich饰)受命来到地球,她要协助人类与每隔五千年降临一次的邪恶力量对抗,联合风、火、水、土四块神石击退敌人。

在实验室被复制出来后,言语不通的莉露在躲避人类的追捕中搭上了退役特工科本(Bruce Will is饰)的出租车。科本带莉露找到了负责接头的神父,两人也渐渐的产生了好感。

莉露与科本一同前往一个叫“失落天堂”的星球找寻另外四种元素的神石。但是,在战斗中莉露受伤昏迷,而且由于人类的暴行和无知杀戮,莉露陷入了内心的迷惘。大敌当前,科本究竟用什么力量才能唤醒莉露呢?

◎获奖情况 (共1项)

第70届奥斯卡金像奖 (1998)

最佳音效剪辑(提名)

└──马克·马基尼 (id:1276542)

  1. ##### MediaInfo ######

  2. General

  3. Unique ID : 260259120132470474199146279074173836815 (0xC3CC15519878F1A9638BFEE987305E0F)

  4. Complete name : The.Fifth.Element.1997.2160p.HAMI.WEB-DL.AAC2.0.x264-CHDWEB.mkv

  5. Format : Matroska

  6. Format version : Version 4

  7. File size : 16.0 GiB

  8. Duration : 2 h 6 min

  9. Overall bit rate : 18.1 Mb/s

  10. Encoded date : UTC 2022-04-11 17:13:10

  11. Writing application : mkvmerge v63.0.0 ('Everything') 64-bit

  12. Writing library : libebml v1.4.2 + libmatroska v1.6.4

  13. Video

  14. ID : 1

  15. Format : AVC

  16. Format/Info : Advanced Video Codec

  17. Format profile : [email protected]

  18. Format settings : CABAC / 3 Ref Frames

  19. Format settings, CABAC : Yes

  20. Format settings, Reference frames : 3 frames

  21. Format settings, GOP : M=1, N=30

  22. Codec ID : V_MPEG4/ISO/AVC

  23. Duration : 2 h 6 min

  24. Bit rate : 18.0 Mb/s

  25. Nominal bit rate : 20.0 Mb/s

  26. Width : 3 840 pixels

  27. Height : 2 160 pixels

  28. Display aspect ratio : 16:9

  29. Frame rate mode : Constant

  30. Frame rate : 30.000 FPS

  31. Color space : YUV

  32. Chroma subsampling : 4:2:0

  33. Bit depth : 8 bits

  34. Scan type : Progressive

  35. Bits/(Pixel*Frame) : 0.072

  36. Stream size : 15.8 GiB (99%)

  37. Writing library : x264 core 157 r2935 545de2f

  38. Encoding settings : cabac=1 / ref=3 / deblock=1:0:0 / analyse=0x3:0x113 / me=hex / subme=7 / psy=1 / psy_rd=1.00:0.00 / mixed_ref=1 / me_range=16 / chroma_me=1 / trellis=1 / 8x8dct=1 / cqm=0 / deadzone=21,11 / fast_pskip=1 / chroma_qp_offset=-2 / threads=67 / lookahead_threads=11 / sliced_threads=0 / nr=0 / decimate=1 / interlaced=0 / NTMzNTQ= / bluray_compat=0 / constrained_intra=0 / bframes=0 / weightp=2 / keyint=30 / keyint_min=16 / scenecut=0 / intra_refresh=0 / rc_lookahead=30 / rc=cbr / mbtree=1 / bitrate=20000 / ratetol=1.0 / qcomp=0.60 / qpmin=0 / qpmax=69 / qpstep=4 / vbv_maxrate=20000 / vbv_bufsize=20000 / nal_hrd=none / filler=0 / NTMzNTQ=LmsMAP37EqsCpk / ip_ratio=1.40 / aq=1:1.00

  39. Language : English

  40. Default : Yes

  41. Forced : No

  42. Audio

  43. ID : 2

  44. Format : AAC LC

  45. Format/Info : Advanced Audio Codec Low Complexity

  46. Codec ID : A_AAC-2

  47. Duration : 2 h 6 min

  48. Bit rate : 129 kb/s

  49. Channel(s) : 2 channels

  50. Channel layout : L R

  51. Sampling rate : 48.0 kHz

  52. Frame rate : 46.875 FPS (1024 SPF)

  53. Compression mode : Lossy

  54. Stream size : 116 MiB (1%)

  55. Language : English

  56. Default : Yes

  57. Forced : No


复制代码



文件下载


除非特别注明,本文『第五元素[中文字幕].The.Fifth.Element.1997.2160p.HAMI.WEB-DL.AAC2.0.x264-CTRLWEB 15.96GB』来源于互联网机器人自动抓取,非本站原创。 浮游电影网不对本文拥有版权,如有侵犯,请联系邮箱:fuyouu#yandex.com[#换成@]投诉。我们会在15个工作日内删除。 但烦请转载时请标明出处:“本文转载于『浮游电影网』,原文地址:https://www.fuyouu.com/21327.html

评论吧骚年!

发表你的见解   

昵称*

E-mail*(建议输入,以便收到博主回复的提示邮件)

验证码*

您可以使用eMule或eMule Mod(Windows)、aMule(Win、Linux、Mac)等软件下载eD2k链接。。
eMule收藏集(.emulecollection)文件是您选中的所有链接的列表文件。eMule可以直接下载它们。
按住SHIFT键选择可以选中多个选择框。
可用文件名和大小选择器来选择文件。
文件名选择器帮您根据文件名称或后缀来选择文件。不分大小写。
符号使用:
和:空格( )、+
不包含:-
或:|
转义:一对英文引号("");
匹配开头:^
匹配结尾:$
例如:
选中所有名称中包含有“eMule”或“0.49c”字眼,但不包含有“exe”字眼的:emule|0.49c -exe
选中所有名称的开头是“eMule”,结尾是“0.49c”的:^emule 0.49c$
选中所有名称中带有“eMule 0.49c”的(必须是“eMule 0.49c”,中间没有别的字符,不能是“eMule fake 0.49c”),需要转义:"emule 0.49c"
大小选择器帮您根据文件大小选择文件。