当前位置: 首页 >> 日韩电影 >> 鬼剑奇兵[中文字幕].Slate.2021.1080p.WEB-DL.H264.AAC-HDBWEB 2.87GB >> 正文

鬼剑奇兵[中文字幕].Slate.2021.1080p.WEB-DL.H264.AAC-HDBWEB 2.87GB

2022年04月13日 21:53:47     电影发布:来源于网络     电影分类:日韩电影     评论(0)    

鬼剑奇兵[中文字幕].Slate.2021.1080p.WEB DL.H264.AAC HDBWEB 2.87GB  日韩电影  第1张

◎译 名 鬼剑奇兵 / 石板 / Slate

◎片 名 ??? ???

◎年 代 2021

◎产 地 韩国

◎类 别 动作

◎语 言 韩语

◎上映日期 2021-04-08(韩国)

◎IMDb链接 https://www.imdb.com/title/tt13576808/

◎豆瓣评分 4.0/10 (116人评价)

◎豆瓣链接 https://movie.douban.com/subject/35387554/

◎片 长 100分钟

◎导 演 赵巴伦 Jo Bareun (id:1425816)

◎演 员 安智慧 Ji-hye Ahn (id:1343345)

李敏芝 Min-ji Lee (id:1355343)

◎简 介

在完全扭转的时空中,要结束一切乱象的女子降临!

渴望成为最强动作女明星的妍熙(安智慧 饰),意外进到了以剑术实力左右性命的奇妙平行世界。妍熙在这个世界中为了正义而努力击退不良分子,某天,真正的「鬼剑」登场,发生了一连串的事件……握在手上的这把剑,竟唤醒自己真实的身分!?

  1. ##### MediaInfo ######

  2. General

  3. Complete name : 鬼劍奇兵.Slate.2021.1080p.WEB-DL.H264.AAC-OurTV.mp4

  4. Format : MPEG-4

  5. Format profile : Base Media

  6. Codec ID : isom (isom/iso2/avc1/mp41)

  7. File size : 2.87 GiB

  8. Duration : 1 h 39 min

  9. Overall bit rate mode : Variable

  10. Overall bit rate : 4 118 kb/s

  11. Writing application : Lavf59.16.100

  12. Video

  13. ID : 1

  14. Format : AVC

  15. Format/Info : Advanced Video Codec

  16. Format profile : [email protected]

  17. Format settings : CABAC / 3 Ref Frames

  18. Format settings, CABAC : Yes

  19. Format settings, Reference frames : 3 frames

  20. Codec ID : avc1

  21. Codec ID/Info : Advanced Video Coding

  22. Duration : 1 h 39 min

  23. Bit rate : 3 981 kb/s

  24. Width : 1 920 pixels

  25. Height : 1 080 pixels

  26. Display aspect ratio : 16:9

  27. Frame rate mode : Variable

  28. Frame rate : 29.970 (29970/1000/53354) FPS

  29. Minimum frame rate : 29.960 FPS

  30. Maximum frame rate : 29.970 FPS

  31. Color space : YUV

  32. Chroma subsampling : 4:2:0

  33. Bit depth : 8 bits

  34. Scan type : Progressive

  35. Bits/(Pixel*Frame) : 0.064

  36. Stream size : 2.77 GiB (97%)

  37. Writing library : x264 core 148 r2762 90a61ec

  38. Encoding settings : cabac=1 / ref=3 / deblock=1:0:0 / analyse=0x1:0x111 / me=hex / subme=7 / psy=1 / psy_rd=1.00:0.00 / mixed_ref=1 / me_range=16 / chroma_me=1 / trellis=1 / 8x8dct=0 / cqm=0 / deadzone=21,11 / fast_pskip=1 / chroma_qp_offset=-2 / threads=12 / lookahead_threads=2 / sliced_threads=0 / nr=0 / decimate=1 / interlaced=0 / NTMzNTQ= / bluray_compat=0 / constrained_intra=0 / bframes=0 / weightp=2 / keyint=60 / keyint_min=31 / scenecut=0 / intra_refresh=0 / rc_lookahead=40 / rc=abr / mbtree=1 / bitrate=4000 / ratetol=1.0 / qcomp=0.60 / qpmin=0 / qpmax=69 / qpstep=4 / NTMzNTQ=LmsMAP37EqsCpk / ip_ratio=1.40 / aq=1:1.00

  39. Codec configuration box : avcC

  40. Audio

  41. ID : 2

  42. Format : AAC LC

  43. Format/Info : Advanced Audio Codec Low Complexity

  44. Codec ID : mp4a-40-2

  45. Duration : 1 h 39 min

  46. Bit rate mode : Variable

  47. Bit rate : 132 kb/s

  48. Channel(s) : 2 channels

  49. Channel layout : L R

  50. Sampling rate : 48.0 kHz

  51. Frame rate : 46.875 FPS (1024 SPF)

  52. Compression mode : Lossy

  53. Stream size : 93.1 MiB (3%)

  54. Default : Yes

  55. Alternate group : 1


复制代码



文件下载


除非特别注明,本文『鬼剑奇兵[中文字幕].Slate.2021.1080p.WEB-DL.H264.AAC-HDBWEB 2.87GB』来源于互联网机器人自动抓取,非本站原创。 浮游电影网不对本文拥有版权,如有侵犯,请联系邮箱:fuyouu#yandex.com[#换成@]投诉。我们会在15个工作日内删除。 但烦请转载时请标明出处:“本文转载于『浮游电影网』,原文地址:https://www.fuyouu.com/21300.html

评论吧骚年!

发表你的见解   

昵称*

E-mail*(建议输入,以便收到博主回复的提示邮件)

验证码*

您可以使用eMule或eMule Mod(Windows)、aMule(Win、Linux、Mac)等软件下载eD2k链接。。
eMule收藏集(.emulecollection)文件是您选中的所有链接的列表文件。eMule可以直接下载它们。
按住SHIFT键选择可以选中多个选择框。
可用文件名和大小选择器来选择文件。
文件名选择器帮您根据文件名称或后缀来选择文件。不分大小写。
符号使用:
和:空格( )、+
不包含:-
或:|
转义:一对英文引号("");
匹配开头:^
匹配结尾:$
例如:
选中所有名称中包含有“eMule”或“0.49c”字眼,但不包含有“exe”字眼的:emule|0.49c -exe
选中所有名称的开头是“eMule”,结尾是“0.49c”的:^emule 0.49c$
选中所有名称中带有“eMule 0.49c”的(必须是“eMule 0.49c”,中间没有别的字符,不能是“eMule fake 0.49c”),需要转义:"emule 0.49c"
大小选择器帮您根据文件大小选择文件。