当前位置: 首页 >> 欧美电影 >> 谍影特工[国语配音/中文字幕].The.November.Man.2014.2160p.WEB-DL.H265.DD2.0.2Audio-HDBWEB 21.05GB >> 正文

谍影特工[国语配音/中文字幕].The.November.Man.2014.2160p.WEB-DL.H265.DD2.0.2Audio-HDBWEB 21.05GB

2022年04月13日 21:52:47     电影发布:来源于网络     电影分类:欧美电影     评论(0)    

谍影特工[国语配音/中文字幕].The.November.Man.2014.2160p.WEB DL.H265.DD2.0.2Audio HDBWEB 21.05GB  欧美电影  第1张

◎译 名 谍影特工 / 十一月杀手 / 谍网暗战(港) / 特务交锋(台) / 没有间谍

◎片 名 The November Man

◎年 代 2014

◎产 地 美国 / 英国

◎类 别 动作 / 惊悚

◎语 言 英语 / 俄语

◎上映日期 2016-03-04(中国大陆) / 2014-08-27(美国)

◎IMDb链接 https://www.imdb.com/title/tt2402157/

◎豆瓣评分 6.4/10 (15263人评价)

◎豆瓣链接 https://movie.douban.com/subject/10792320/

◎片 长 102分钟(中国大陆)

◎导 演 罗杰·唐纳森 Roger Donaldson (id:1040805)

◎编 剧 迈克尔·芬奇 Michael Finch (id:1342610)

卡尔·盖杜谢克 Karl Gajdusek (id:1023669)

比尔·格兰杰 Bill Granger (id:1342611)

◎演 员 皮尔斯·布鲁斯南 Pierce Brosnan (id:1031219)

卢克·布雷西 Luke Bracey (id:1338326)

欧嘉·柯瑞兰寇 Olga Kurylenko (id:1035654)

比尔·斯米托洛维奇 Bill Smitrovich (id:1149373)

阿米拉·特兹么希奇 Amila Terzimehic (id:1350991)

拉扎尔·里斯托夫斯基 Lazar Ristovski (id:1138067)

梅迪哈·穆斯利维奇 Mediha Musliovic (id:1344983)

伊莉萨·泰勒-科特尔 Eliza Taylor-Cotter (id:1212219)

卡特琳娜·斯柯松 Caterina Scorsone (id:1027241)

小田部阿基 Akie Kotabe (id:1231929)

威尔·帕顿 Will Patton (id:1019066)

帕特里克·肯尼迪 Patrick Kennedy (id:1206488)

Dragan Marinkovic Dragan Marinkovic (id:1197154)

米洛斯·蒂莫蒂杰维奇 Milos Timotijevic (id:1157814)

Marija Dakic Marija Dakic (id:1205976)

Milutin Milosevic Milutin Milosevic (id:1206990)

尼娜·扬科维奇 Nina Jankovic (id:1332444)

Nebojsa Djordjevic (id:1249610)

马克·莫特拉姆 Mark Mottram (id:1292630)

德拉加娜·阿特利亚 Dragana Atlija (id:1348307)

肖恩·布鲁斯南 Sean Brosnan (id:1076325)

罗曼·米蒂齐扬 Roman Mitichyan (id:1250894)

比尔·格兰杰 Bill Granger (id:1342611)

马可·贝尔崔米 Marco Beltrami (id:1027998)

梅格·艾弗李斯特 Meg Everist (id:1283362)

◎简 介

彼得(皮尔斯·布鲁斯南 Pierce Brosnan 饰)曾是一名CIA的特工,人称“十一月杀手”,他个性沉稳技艺高超,深受上司和同僚们的信赖。然而,彼得厌倦了整日打打杀杀东躲西藏的日子,他费了好大一番工夫,总算得以金盆洗手,只希望能够隐姓埋名,找一个谁也不认识他的地方,在平静中度过余生。

然而天不遂人愿,一位名为爱丽丝(欧嘉·柯瑞兰寇 Olga Kurylenko 饰)女子出现在了彼得的生活中。爱丽丝手中掌握某些证据,直指数十年前的一个阴谋,此时她的生命正受到CIA的威胁,而曾经的这起阴谋,和彼得有着千丝万缕的关联。为了保护爱丽丝,彼得成为了老东家的对手,而CIA也不示弱,派出彼得过去的徒弟大卫(卢克·布雷西 Luke Bracey 饰)狙击两人。

  1. ##### MediaInfo ######

  2. General

  3. Complete name : 谍影特工.The.November.Man.2014.2160p.WEB-DL.H265.DD2.0.2Audio-OurTV.mp4

  4. Format : MPEG-4

  5. Format profile : Base Media

  6. Codec ID : isom (isom/iso2/mp41)

  7. File size : 21.0 GiB

  8. Duration : 1 h 41 min

  9. Overall bit rate : 29.7 Mb/s

  10. Writing application : OurTV Multimedia Platform

  11. Video

  12. ID : 1

  13. Format : HEVC

  14. Format/Info : High Efficiency Video Coding

  15. Format profile : [email protected]@High

  16. Codec ID : hev1

  17. Codec ID/Info : High Efficiency Video Coding

  18. Duration : 1 h 41 min

  19. Bit rate : 28.9 Mb/s

  20. Width : 3 840 pixels

  21. Height : 2 160 pixels

  22. Display aspect ratio : 16:9

  23. Frame rate mode : Variable

  24. Frame rate : 24.961 FPS

  25. Minimum frame rate : 12.500 FPS

  26. Maximum frame rate : 25.000 FPS

  27. Original frame rate : 25.000 FPS

  28. Color space : YUV

  29. Chroma subsampling : 4:2:0

  30. Bit depth : 8 bits

  31. Bits/(Pixel*Frame) : 0.140

  32. Stream size : 20.5 GiB (97%)

  33. Color range : Limited

  34. Color primaries : BT.709

  35. Transfer characteristics : BT.709

  36. Matrix coefficients : BT.709

  37. Codec configuration box : hvcC

  38. Audio #1

  39. ID : 2

  40. Format : AC-3

  41. Format/Info : Audio Coding 3

  42. Commercial name : Dolby Digital

  43. Codec ID : ac-3

  44. Duration : 1 h 41 min

  45. Bit rate mode : Constant

  46. Bit rate : 384 kb/s

  47. Channel(s) : 2 channels

  48. Channel layout : L R

  49. Sampling rate : 48.0 kHz

  50. Frame rate : 31.250 FPS (1536 SPF)

  51. Compression mode : Lossy

  52. Stream size : 279 MiB (1%)

  53. Title : 英语DD2.0

  54. Language : English

  55. Service kind : Complete Main

  56. Default : Yes

  57. Alternate group : 1

  58. Audio #2

  59. ID : 3

  60. Format : AC-3

  61. Format/Info : Audio Coding 3

  62. Commercial name : Dolby Digital

  63. Codec ID : ac-3

  64. Duration : 1 h 41 min

  65. Bit rate mode : Constant

  66. Bit rate : 384 kb/s

  67. Channel(s) : 2 channels

  68. Channel layout : L R

  69. Sampling rate : 48.0 kHz

  70. Frame rate : 31.250 FPS (1536 SPF)

  71. Compression mode : Lossy

  72. Stream size : 279 MiB (1%)

  73. Title : 国语DD2.0

  74. Language : Chinese

  75. Service kind : Complete Main

  76. Default : No

  77. Alternate group : 1


复制代码



文件下载


除非特别注明,本文『谍影特工[国语配音/中文字幕].The.November.Man.2014.2160p.WEB-DL.H265.DD2.0.2Audio-HDBWEB 21.05GB』来源于互联网机器人自动抓取,非本站原创。 浮游电影网不对本文拥有版权,如有侵犯,请联系邮箱:fuyouu#yandex.com[#换成@]投诉。我们会在15个工作日内删除。 但烦请转载时请标明出处:“本文转载于『浮游电影网』,原文地址:https://www.fuyouu.com/21299.html

评论吧骚年!

发表你的见解   

昵称*

E-mail*(建议输入,以便收到博主回复的提示邮件)

验证码*

您可以使用eMule或eMule Mod(Windows)、aMule(Win、Linux、Mac)等软件下载eD2k链接。。
eMule收藏集(.emulecollection)文件是您选中的所有链接的列表文件。eMule可以直接下载它们。
按住SHIFT键选择可以选中多个选择框。
可用文件名和大小选择器来选择文件。
文件名选择器帮您根据文件名称或后缀来选择文件。不分大小写。
符号使用:
和:空格( )、+
不包含:-
或:|
转义:一对英文引号("");
匹配开头:^
匹配结尾:$
例如:
选中所有名称中包含有“eMule”或“0.49c”字眼,但不包含有“exe”字眼的:emule|0.49c -exe
选中所有名称的开头是“eMule”,结尾是“0.49c”的:^emule 0.49c$
选中所有名称中带有“eMule 0.49c”的(必须是“eMule 0.49c”,中间没有别的字符,不能是“eMule fake 0.49c”),需要转义:"emule 0.49c"
大小选择器帮您根据文件大小选择文件。