当前位置: 首页 >> 海外电影 >> 星路奇程[中文字幕].Zeta.2016.1080p.WEB-DL.H264.AAC-NewWEB 3.76GB >> 正文

星路奇程[中文字幕].Zeta.2016.1080p.WEB-DL.H264.AAC-NewWEB 3.76GB

2022年04月13日 21:51:42     电影发布:来源于网络     电影分类:海外电影     评论(0)    

星路奇程[中文字幕].Zeta.2016.1080p.WEB DL.H264.AAC NewWEB 3.76GB 音乐 喜剧 海外电影  第1张

◎译 名 星路奇程

◎片 名 Zeta

◎年 代 2016

◎产 地 意大利

◎类 别 喜剧 / 音乐

◎IMDb链接 https://www.imdb.com/title/tt5230166/

◎豆瓣链接 https://movie.douban.com/subject/30286069/

◎片 长 100分钟

◎简 介

生活在罗马街头的意大利穷小子亚历克斯,最终实现了自己的梦想,成为一名叫泽塔的说唱歌手。在那个光怪陆离的嘻哈世界中,泽塔不得不与严酷的现实及内心的恶魔斗争,最终找到自己的归属。

  1. ##### MediaInfo ######

  2. General

  3. Complete name : Zeta 2016 1080p WEB-DL H264 AAC-PTerWEB.mp4

  4. Format : MPEG-4

  5. Format profile : Base Media

  6. Codec ID : isom (isom/iso2/avc1/mp41)

  7. File size : 3.75 GiB

  8. Duration : 1 h 40 min

  9. Overall bit rate : 5 355 kb/s

  10. Movie name : 星路奇程

  11. Writing application : Lavf58.32.104

  12. Cover : Yes

  13. Video

  14. ID : 1

  15. Format : AVC

  16. Format/Info : Advanced Video Codec

  17. Format profile : [email protected]

  18. Format settings : CABAC / 6 Ref Frames

  19. Format settings, CABAC : Yes

  20. Format settings, Reference frames : 6 frames

  21. Codec ID : avc1

  22. Codec ID/Info : Advanced Video Coding

  23. Duration : 1 h 40 min

  24. Bit rate : 5 031 kb/s

  25. Width : 1 920 pixels

  26. Height : 804 pixels

  27. Display aspect ratio : 2.40:1

  28. Frame rate mode : Constant

  29. Frame rate : 25.000 FPS

  30. Color space : YUV

  31. Chroma subsampling : 4:2:0

  32. Bit depth : 8 bits

  33. Scan type : Progressive

  34. Bits/(Pixel*Frame) : 0.130

  35. Stream size : 3.53 GiB (94%)

  36. Color range : Limited

  37. Color primaries : BT.709

  38. Transfer characteristics : BT.709

  39. Matrix coefficients : BT.709

  40. Codec configuration box : avcC

  41. Audio

  42. ID : 2

  43. Format : AAC LC

  44. Format/Info : Advanced Audio Codec Low Complexity

  45. Codec ID : mp4a-40-2

  46. Duration : 1 h 40 min

  47. Bit rate mode : Constant

  48. Bit rate : 317 kb/s

  49. Channel(s) : 2 channels

  50. Channel layout : L R

  51. Sampling rate : 48.0 kHz

  52. Frame rate : 46.875 FPS (1024 SPF)

  53. Compression mode : Lossy

  54. Stream size : 228 MiB (6%)

  55. Default : Yes

  56. Alternate group : 1


文件下载


除非特别注明,本文『星路奇程[中文字幕].Zeta.2016.1080p.WEB-DL.H264.AAC-NewWEB 3.76GB』来源于互联网机器人自动抓取,非本站原创。 浮游电影网不对本文拥有版权,如有侵犯,请联系邮箱:fuyouu#yandex.com[#换成@]投诉。我们会在15个工作日内删除。 但烦请转载时请标明出处:“本文转载于『浮游电影网』,原文地址:https://www.fuyouu.com/21298.html

评论吧骚年!

发表你的见解   

昵称*

E-mail*(建议输入,以便收到博主回复的提示邮件)

验证码*

您可以使用eMule或eMule Mod(Windows)、aMule(Win、Linux、Mac)等软件下载eD2k链接。。
eMule收藏集(.emulecollection)文件是您选中的所有链接的列表文件。eMule可以直接下载它们。
按住SHIFT键选择可以选中多个选择框。
可用文件名和大小选择器来选择文件。
文件名选择器帮您根据文件名称或后缀来选择文件。不分大小写。
符号使用:
和:空格( )、+
不包含:-
或:|
转义:一对英文引号("");
匹配开头:^
匹配结尾:$
例如:
选中所有名称中包含有“eMule”或“0.49c”字眼,但不包含有“exe”字眼的:emule|0.49c -exe
选中所有名称的开头是“eMule”,结尾是“0.49c”的:^emule 0.49c$
选中所有名称中带有“eMule 0.49c”的(必须是“eMule 0.49c”,中间没有别的字符,不能是“eMule fake 0.49c”),需要转义:"emule 0.49c"
大小选择器帮您根据文件大小选择文件。