当前位置: 首页 >> 港台电影 >> 假冒女团[粤语音轨/简繁英字幕].Showbiz.Spy.2021.BluRay.1080p.TrueHD.5.1.x265.10bit-ALT 5.23GB >> 正文

假冒女团[粤语音轨/简繁英字幕].Showbiz.Spy.2021.BluRay.1080p.TrueHD.5.1.x265.10bit-ALT 5.23GB

2022年04月13日 21:05:53     电影发布:来源于网络     电影分类:港台电影     评论(0)    

假冒女团[粤语音轨/简繁英字幕].Showbiz.Spy.2021.BluRay.1080p.TrueHD.5.1.x265.10bit ALT 5.23GB  港台电影  第1张

◎译 名 假冒女团 / Showbiz Spy

◎片 名 假冒女團

◎年 代 2021

◎产 地 中国香港

◎类 别 喜剧

◎语 言 粤语

◎上映日期 2021-11-25(中国香港)

◎IMDb链接 https://www.imdb.com/title/tt16390610/

◎豆瓣链接 https://movie.douban.com/subject/35497836/

◎片 长 92分钟

◎导 演 徐梓耀 Chui Tze Yiu (id:1401021)

◎编 剧 徐梓耀 Chui Tze Yiu (id:1401021)

◎演 员 谭耀文 Patrick Tam (id:1033280)

卢瀚霆 Anson Lo (id:1427303)

苏皓儿 Chloe So (id:1381326)

李静仪 Heidi Lee (id:1343968)

林敏骢 Man-Chung Lam (id:1289295)

苏致豪 Chi-Ho So (id:1416656)

◎简 介

國際保障未成年少男少女身心健康發展協會會員Dr.K (譚耀文) 質疑司徒老闆(林敏聰) 舉辦的選秀活動「新星產尽估媚贻p人追夢的心理,從中榨壓勒索,嚴重危害大批青少年身心發展,然而協會目前面臨營運困難,只好將貨就價重新聘用被革職的問題會員雷紫荊(盧瀚霆) 協助調查,意外令娛樂記者夏日葵(蘇皓兒)、九靖枋职装俸希ɡ铎o儀)及解救堂妹元萱(陳紫萱)的元螢(李炘頣)組成假冒女團參賽?

  1. ##### MediaInfo ######

  2. General

  3. Unique ID : 242399211774347483050905565693015893514 (0xB65C63DA00B3D45424E49AA45166260A)

  4. Complete name : Showbiz.Spy.2021.BluRay.1080p.TrueHD.5.1.x265.10bit-BeiTai.mkv

  5. Format : Matroska

  6. Format version : Version 4

  7. File size : 5.23 GiB

  8. Duration : 1 h 32 min

  9. Overall bit rate mode : Variable

  10. Overall bit rate : 8 116 kb/s

  11. Encoded date : UTC 2022-04-11 10:31:25

  12. Writing application : mkvmerge v49.0.0 ('Sick Of Losing Soulmates') 64-bit

  13. Writing library : libebml v1.4.0 + libmatroska v1.6.1

  14. Video

  15. ID : 1

  16. Format : HEVC

  17. Format/Info : High Efficiency Video Coding

  18. Format profile : Main [email protected]@High

  19. Codec ID : V_MPEGH/ISO/HEVC

  20. Duration : 1 h 32 min

  21. Bit rate : 4 504 kb/s

  22. Width : 1 920 pixels

  23. Height : 816 pixels

  24. Display aspect ratio : 2.35:1

  25. Frame rate mode : Constant

  26. Frame rate : 24.000 FPS

  27. Color space : YUV

  28. Chroma subsampling : 4:2:0

  29. Bit depth : 10 bits

  30. Bits/(Pixel*Frame) : 0.120

  31. Stream size : 2.90 GiB (55%)

  32. Title : HEVC, [email protected]@High, 24 fps @ 4503 kbps

  33. Writing library : x265 3.5+36-1f2c8da77:[Windows][GCC 11.2.0][64 bit] 10bit

  34. Encoding settings : cpuid=533541111039 / frame-threads=4 / numa-pools=20 / wpp / pmode / pme / no-psnr / no-ssim / log-level=2 / input-csp=1 / input-res=1920x816 / interlace=0 / total-frames=132755 / level-idc=51 / high-tier=1 / uhd-bd=0 / ref=5 / no-allow-non-conformance / no-repeat-headers / annexb / no-aud / no-eob / no-eos / no-hrd / info / hash=0 / no-temporal-layers / open-gop / min-keyint=24 / keyint=240 / gop-lookahead=0 / bframes=6 / b-adapt=2 / b-pyramid / bframe-bias=0 / rc-lookahead=40 / lookahead-slices=0 / NTMzNTQ=uuDQuD2mJt9fsCf / scenecut=40 / no-hist-scenecut / radl=0 / no-splice / no-intra-refresh / ctu=32 / min-cu-size=8 / no-rect / no-amp / max-tu-size=32 / tu-inter-depth=3 / tu-intra-depth=3 / limit-tu=4 / rdoq-level=2 / dynamic-rd=0.00 / no-ssim-rd / signhide / no-tskip / nr-intra=0 / nr-inter=0 / no-constrained-intra / no-strong-intra-smoothing / max-merge=4 / limit-refs=1 / limit-modes / me=3 / subme=4 / merange=25 / temporal-mvp / no-frame-dup / no-hme / weightp / weightb / no-analyze-src-pics / deblock=-3:-3 / no-sao / no-sao-non-deblock / rd=6 / selective-sao=0 / no-early-skip / rskip / no-fast-intra / no-tskip-fast / no-cu-lossless / b-intra / no-splitrd-skip / rdpenalty=0 / psy-rd=2.00 / psy-rdoq=1.00 / no-rd-refine / no-lossless / cbqpoffs=0 / crqpoffs=0 / rc=crf / crf=17.0 / qcomp=0.65 / qpstep=4 / stats-write=0 / stats-read=0 / vbv-maxrate=80000 / vbv-bufsize=80000 / vbv-init=0.9 / min-vbv-fullness=50.0 / max-vbv-fullness=80.0 / crf-max=0.0 / crf-min=0.0 / ipratio=1.40 / pbratio=1.30 / aq-mode=2 / aq-strength=0.85 / cutree / zone-count=0 / no-strict-cbr / qg-size=32 / no-rc-grain / qpmax=69 / qpmin=0 / no-const-vbv / sar=1 / overscan=0 / videoformat=5 / range=0 / colorprim=1 / transfer=1 / colormatrix=1 / chromaloc=0 / display-window=0 / cll=0,0 / min-luma=0 / max-luma=1023 / log2-max-poc-lsb=8 / vui-timing-info / vui-hrd-info / slices=1 / no-opt-qp-pps / no-opt-ref-list-length-pps / no-multi-pass-opt-rps / scenecut-bias=0.05 / hist-threshold=0.03 / no-opt-cu-delta-qp / no-aq-motion / no-hdr10 / no-hdr10-opt / no-dhdr10-opt / no-idr-recovery-sei / analysis-reuse-level=0 / analysis-save-reuse-level=0 / analysis-load-reuse-level=0 / scale-factor=0 / refine-intra=0 / refine-inter=0 / refine-mv=1 / refine-ctu-distortion=0 / no-limit-sao / ctu-info=0 / no-lowpass-dct / refine-analysis-type=0 / copy-pic=1 / max-ausize-factor=1.0 / no-dynamic-refine / no-single-sei / no-hevc-aq / no-svt / no-field / qp-adaptation-range=1.00 / scenecut-aware-qp=0conformance-window-offsets / right=0 / bottom=0 / NTMzNTQ= / decoder-max-rate=0 / no-vbv-live-multi-pass

  35. Language : English

  36. Default : Yes

  37. Forced : No

  38. Color range : Limited

  39. Color primaries : BT.709

  40. Transfer characteristics : BT.709

  41. Matrix coefficients : BT.709

  42. Audio #1

  43. ID : 2

  44. Format : MLP FBA

  45. Format/Info : Meridian Lossless Packing FBA

  46. Commercial name : Dolby TrueHD

  47. Codec ID : A_TRUEHD

  48. Duration : 1 h 32 min

  49. Bit rate mode : Variable

  50. Bit rate : 2 794 kb/s

  51. Maximum bit rate : 4 704 kb/s

  52. Channel(s) : 6 channels

  53. Channel layout : L R C LFE Ls Rs

  54. Sampling rate : 96.0 kHz

  55. Frame rate : 1 200.000 FPS (80 SPF)

  56. Compression mode : Lossless

  57. Stream size : 1.80 GiB (34%)

  58. Title : Cantonese Dolby TrueHD Audio 5.1 @ 3434 kbps

  59. Language : Chinese

  60. Default : Yes

  61. Forced : No

  62. Audio #2

  63. ID : 3

  64. Format : AC-3

  65. Format/Info : Audio Coding 3

  66. Commercial name : Dolby Digital

  67. Codec ID : A_AC3

  68. Duration : 1 h 32 min

  69. Bit rate mode : Constant

  70. Bit rate : 640 kb/s

  71. Channel(s) : 6 channels

  72. Channel layout : L R C LFE Ls Rs

  73. Sampling rate : 48.0 kHz

  74. Frame rate : 31.250 FPS (1536 SPF)

  75. Compression mode : Lossy

  76. Stream size : 422 MiB (8%)

  77. Title : Cantonese AC3 5.1-EX @ 640 kbps

  78. Language : Chinese

  79. Service kind : Complete Main

  80. Default : No

  81. Forced : No

  82. Text #1

  83. ID : 4

  84. Format : PGS

  85. Codec ID : S_HDMV/PGS

  86. Codec ID/Info : Picture based subtitle format used on BDs/HD-DVDs

  87. Duration : 1 h 24 min

  88. Bit rate : 39.9 kb/s

  89. Count of elements : 2017

  90. Stream size : 24.1 MiB (0%)

  91. Title : Cht/SUP 原盘繁体

  92. Language : Chinese

  93. Default : No

  94. Forced : No

  95. Text #2

  96. ID : 5

  97. Format : PGS

  98. Codec ID : S_HDMV/PGS

  99. Codec ID/Info : Picture based subtitle format used on BDs/HD-DVDs

  100. Duration : 1 h 24 min

  101. Bit rate : 37.1 kb/s

  102. Count of elements : 2017

  103. Stream size : 22.4 MiB (0%)

  104. Title : Chs/SUP 原盘简体

  105. Language : Chinese

  106. Default : Yes

  107. Forced : No

  108. Text #3

  109. ID : 6

  110. Format : PGS

  111. Codec ID : S_HDMV/PGS

  112. Codec ID/Info : Picture based subtitle format used on BDs/HD-DVDs

  113. Duration : 1 h 24 min

  114. Bit rate : 42.2 kb/s

  115. Count of elements : 2018

  116. Stream size : 25.4 MiB (0%)

  117. Title : Eng/SUP

  118. Language : English

  119. Default : No

  120. Forced : No

  121. Menu

  122. 00:00:00.000 : en:第 01 章

  123. 00:05:30.708 : en:第 02 章

  124. 00:11:28.458 : en:第 03 章

  125. 00:17:32.750 : en:第 04 章

  126. 00:29:51.667 : en:第 05 章

  127. 00:41:40.208 : en:第 06 章

  128. 00:50:26.542 : en:第 07 章

  129. 00:56:31.083 : en:第 08 章

  130. 01:02:01.000 : en:第 09 章

  131. 01:09:17.875 : en:第 10 章

  132. 01:19:58.875 : en:第 11 章

  133. 01:25:36.375 : en:第 12 章


复制代码



文件下载


除非特别注明,本文『假冒女团[粤语音轨/简繁英字幕].Showbiz.Spy.2021.BluRay.1080p.TrueHD.5.1.x265.10bit-ALT 5.23GB』来源于互联网机器人自动抓取,非本站原创。 浮游电影网不对本文拥有版权,如有侵犯,请联系邮箱:fuyouu#yandex.com[#换成@]投诉。我们会在15个工作日内删除。 但烦请转载时请标明出处:“本文转载于『浮游电影网』,原文地址:https://www.fuyouu.com/21295.html

评论吧骚年!

发表你的见解   

昵称*

E-mail*(建议输入,以便收到博主回复的提示邮件)

验证码*

您可以使用eMule或eMule Mod(Windows)、aMule(Win、Linux、Mac)等软件下载eD2k链接。。
eMule收藏集(.emulecollection)文件是您选中的所有链接的列表文件。eMule可以直接下载它们。
按住SHIFT键选择可以选中多个选择框。
可用文件名和大小选择器来选择文件。
文件名选择器帮您根据文件名称或后缀来选择文件。不分大小写。
符号使用:
和:空格( )、+
不包含:-
或:|
转义:一对英文引号("");
匹配开头:^
匹配结尾:$
例如:
选中所有名称中包含有“eMule”或“0.49c”字眼,但不包含有“exe”字眼的:emule|0.49c -exe
选中所有名称的开头是“eMule”,结尾是“0.49c”的:^emule 0.49c$
选中所有名称中带有“eMule 0.49c”的(必须是“eMule 0.49c”,中间没有别的字符,不能是“eMule fake 0.49c”),需要转义:"emule 0.49c"
大小选择器帮您根据文件大小选择文件。