当前位置: 首页 >> 欧美电影 >> 雾人[共2部合集][简繁英字幕].Reeker.2005-2008.UHD.BluRay.2160p.DTS-HD.MA5.1.x265.10bit.HDR-ALT 24.73GB >> 正文

雾人[共2部合集][简繁英字幕].Reeker.2005-2008.UHD.BluRay.2160p.DTS-HD.MA5.1.x265.10bit.HDR-ALT 24.73GB

2022年04月13日 21:03:40     电影发布:来源于网络     电影分类:欧美电影     评论(0)    

雾人[共2部合集][简繁英字幕].Reeker.2005 2008.UHD.BluRay.2160p.DTS HD.MA5.1.x265.10bit.HDR ALT 24.73GB 悬疑 恐怖 欧美电影  第1张

◎译 名 雾人

◎片 名 Reeker

◎年 代 2005

◎产 地 美国

◎类 别 悬疑 / 恐怖

◎语 言 英语

◎上映日期 2005-10-21

◎IMDb链接 https://www.imdb.com/title/tt0393635/

◎豆瓣评分 5.6/10 (652人评价)

◎豆瓣链接 https://movie.douban.com/subject/1894527/

◎片 长 90 分钟

◎演 员 比克斯 Bix (id:1442203)

阿莉尔·凯贝尔 Arielle Kebbel (id:1004590)

保罗·布切 Paul Butcher (id:1004775)

迈克尔·艾恩塞德 Michael Ironside (id:1007000)

德里克·理查德森 Derek Richardson (id:1014118)

德文·古梅尔萨尔 Devon Gummersall (id:1027363)

埃里克·马比斯 Eric Mabius (id:1044914)

克里斯托弗·波耶尔 Christopher Boyer (id:1073071)

Les Jankey Les Jankey (id:1102517)

玛西亚·斯特拉斯曼 Marcia Strassman (id:1153041)

斯科特·怀特 Scott Whyte (id:1163298)

本·扎莱 Ben Zarai (id:1301638)

Ronnie Apteker Ronnie Apteker (id:1026196)

大卫·基辰斯 David Kitchens (id:1288657)

Daniel Barone Daniel Barone (id:1203200)

Mike Mickens Mike Mickens (id:1292003)

Daniel Barone Daniel Barone (id:1203200)

Heather Mages Heather Mages (id:1306035)

泰穆尔·塔隆·拜萨尔 Timur 'Taron' Baysal (id:1153633)

Daniel Barone Daniel Barone (id:1203200)

John Hansen John Hansen (id:1190471)

◎简 介

五名大学生结伴驾车到沙漠当中参加一个联欢会,旅途中发生了意外,他们被迫留在沙漠绿洲上一个荒废的旧旅馆里,不久就受到难以消除的一股臭气的侵袭,他们随后目睹一些被残酷毁伤肢体的陌生旅客出现,大伙被超自然的神秘杀手捕杀。12岁以下不宜。

  1. 合集文件列表:

  2. 1.No.Mans.Land.The.Rise.of.Reeker.2008.UHD.BluRay.2160p.DTS-HD.MA5.1.x265.10bit.HDR-ALT.mkv 10.29GB

  3. 2.Reeker.2005.UHD.BluRay.2160p.DTS-HD.MA5.1.x265.10bit.HDR-ALT.mkv 14.44GB


复制代码

  1. ##### MediaInfo ######

  2. General

  3. Unique ID : 302870444418844980539485446595803302746 (0xE3DAB9CF2EDBE9BA5E453AD9A4534B5A)

  4. Complete name : No.Mans.Land.The.Rise.of.Reeker.2008.UHD.BluRay.2160p.DTS-HD.MA5.1.x265.10bit.HDR-BeiTai.mkv

  5. Format : Matroska

  6. Format version : Version 4

  7. File size : 10.3 GiB

  8. Duration : 1 h 27 min

  9. Overall bit rate mode : Variable

  10. Overall bit rate : 16.7 Mb/s

  11. Encoded date : UTC 2022-04-11 11:51:29

  12. Writing application : mkvmerge v49.0.0 ('Sick Of Losing Soulmates') 64-bit

  13. Writing library : libebml v1.4.0 + libmatroska v1.6.1

  14. Video

  15. ID : 1

  16. Format : HEVC

  17. Format/Info : High Efficiency Video Coding

  18. Format profile : Main [email protected]@High

  19. HDR format : SMPTE ST 2086, HDR10 compatible

  20. Codec ID : V_MPEGH/ISO/HEVC

  21. Duration : 1 h 27 min

  22. Bit rate : 15.1 Mb/s

  23. Width : 3 840 pixels

  24. Height : 2 160 pixels

  25. Display aspect ratio : 16:9

  26. Frame rate mode : Constant

  27. Frame rate : 23.976 (24000/1001/53354) FPS

  28. Color space : YUV

  29. Chroma subsampling : 4:2:0 (Type 2)

  30. Bit depth : 10 bits

  31. Bits/(Pixel*Frame) : 0.076

  32. Stream size : 9.29 GiB (90%)

  33. Title : HEVC, [email protected]@High, 24/1.001 fps @ 15123 kbps

  34. Writing library : x265 3.5+36-1f2c8da77:[Windows][GCC 11.2.0][64 bit] 10bit

  35. Encoding settings : cpuid=533541111039 / frame-threads=4 / numa-pools=20 / wpp / pmode / pme / no-psnr / no-ssim / log-level=2 / input-csp=1 / input-res=3840x2160 / interlace=0 / total-frames=126547 / level-idc=51 / high-tier=1 / uhd-bd=0 / ref=4 / no-allow-non-conformance / repeat-headers / annexb / no-aud / no-eob / no-eos / hrd / info / hash=0 / no-temporal-layers / no-open-gop / min-keyint=24 / keyint=240 / gop-lookahead=0 / bframes=8 / b-adapt=2 / b-pyramid / bframe-bias=0 / rc-lookahead=25 / lookahead-slices=0 / NTMzNTQ=uuDQuD2mJt9fsCf / scenecut=40 / no-hist-scenecut / radl=0 / no-splice / no-intra-refresh / ctu=64 / min-cu-size=8 / no-rect / no-amp / max-tu-size=32 / tu-inter-depth=3 / tu-intra-depth=3 / limit-tu=4 / rdoq-level=2 / dynamic-rd=0.00 / no-ssim-rd / signhide / no-tskip / nr-intra=0 / nr-inter=0 / no-constrained-intra / no-strong-intra-smoothing / max-merge=4 / limit-refs=1 / limit-modes / me=3 / subme=4 / merange=25 / temporal-mvp / no-frame-dup / no-hme / weightp / weightb / no-analyze-src-pics / deblock=-3:-3 / no-sao / no-sao-non-deblock / rd=6 / selective-sao=0 / no-early-skip / rskip / no-fast-intra / no-tskip-fast / no-cu-lossless / b-intra / no-splitrd-skip / rdpenalty=0 / psy-rd=2.00 / psy-rdoq=1.00 / no-rd-refine / no-lossless / cbqpoffs=0 / crqpoffs=0 / rc=crf / crf=18.5 / qcomp=0.65 / qpstep=4 / stats-write=0 / stats-read=0 / vbv-maxrate=160000 / vbv-bufsize=160000 / vbv-init=0.9 / min-vbv-fullness=50.0 / max-vbv-fullness=80.0 / crf-max=0.0 / crf-min=0.0 / ipratio=1.30 / pbratio=1.20 / aq-mode=3 / aq-strength=0.85 / cutree / zone-count=0 / no-strict-cbr / qg-size=32 / no-rc-grain / qpmax=69 / qpmin=0 / no-const-vbv / sar=1 / overscan=0 / videoformat=5 / range=0 / colorprim=9 / transfer=16 / colormatrix=9 / chromaloc=1 / chromaloc-top=2 / chromaloc-bottom=2 / display-window=0 / master-display=G(13250,34500)B(7500,3000)R(34000,16000)WP(15635,16450)L(0,0) / cll=0,0 / min-luma=0 / max-luma=1023 / log2-max-poc-lsb=8 / vui-timing-info / vui-hrd-info / slices=1 / no-opt-qp-pps / no-opt-ref-list-length-pps / no-multi-pass-opt-rps / scenecut-bias=0.05 / hist-threshold=0.03 / no-opt-cu-delta-qp / no-aq-motion / hdr10 / hdr10-opt / no-dhdr10-opt / no-idr-recovery-sei / analysis-reuse-level=0 / analysis-save-reuse-level=0 / analysis-load-reuse-level=0 / scale-factor=0 / refine-intra=0 / refine-inter=0 / refine-mv=1 / refine-ctu-distortion=0 / no-limit-sao / ctu-info=0 / no-lowpass-dct / refine-analysis-type=0 / copy-pic=1 / max-ausize-factor=1.0 / no-dynamic-refine / no-single-sei / no-hevc-aq / no-svt / no-field / qp-adaptation-range=1.00 / scenecut-aware-qp=0conformance-window-offsets / right=0 / bottom=0 / NTMzNTQ= / decoder-max-rate=0 / no-vbv-live-multi-pass

  36. Language : English

  37. Default : Yes

  38. Forced : No

  39. Color range : Limited

  40. Color primaries : BT.2020

  41. Transfer characteristics : PQ

  42. Matrix coefficients : BT.2020 non-constant

  43. Mastering display color primaries : Display P3

  44. Mastering display luminance : min: 0.0000 cd/m2, max: 0 cd/m2

  45. Audio

  46. ID : 2

  47. Format : DTS XLL

  48. Format/Info : Digital Theater Systems

  49. Commercial name : DTS-HD Master Audio

  50. Codec ID : A_DTS

  51. Duration : 1 h 27 min

  52. Bit rate mode : Variable

  53. Bit rate : 1 536 kb/s

  54. Channel(s) : 6 channels

  55. Channel layout : C L R Ls Rs LFE

  56. Sampling rate : 48.0 kHz

  57. Frame rate : 93.750 FPS (512 SPF)

  58. Bit depth : 16 bits

  59. Compression mode : Lossless

  60. Stream size : 967 MiB (9%)

  61. Title : English DTS-HD Master Audio 5.1 @ 1536 kbps

  62. Language : English

  63. Default : Yes

  64. Forced : No

  65. Text #1

  66. ID : 3

  67. Format : PGS

  68. Codec ID : S_HDMV/PGS

  69. Codec ID/Info : Picture based subtitle format used on BDs/HD-DVDs

  70. Duration : 1 h 22 min

  71. Bit rate : 31.0 kb/s

  72. Count of elements : 1681

  73. Stream size : 18.3 MiB (0%)

  74. Title : Eng/SUP

  75. Language : English

  76. Default : No

  77. Forced : No

  78. Text #2

  79. ID : 4

  80. Format : PGS

  81. Codec ID : S_HDMV/PGS

  82. Codec ID/Info : Picture based subtitle format used on BDs/HD-DVDs

  83. Duration : 1 h 22 min

  84. Bit rate : 27.3 kb/s

  85. Count of elements : 1506

  86. Stream size : 16.2 MiB (0%)

  87. Title : Chs/SUP 简体

  88. Language : Chinese

  89. Default : Yes

  90. Forced : No

  91. Text #3

  92. ID : 5

  93. Format : PGS

  94. Codec ID : S_HDMV/PGS

  95. Codec ID/Info : Picture based subtitle format used on BDs/HD-DVDs

  96. Duration : 1 h 22 min

  97. Bit rate : 28.4 kb/s

  98. Count of elements : 1506

  99. Stream size : 16.8 MiB (0%)

  100. Title : Cht/SUP 繁体

  101. Language : Chinese

  102. Default : No

  103. Forced : No


复制代码



文件下载


除非特别注明,本文『雾人[共2部合集][简繁英字幕].Reeker.2005-2008.UHD.BluRay.2160p.DTS-HD.MA5.1.x265.10bit.HDR-ALT 24.73GB』来源于互联网机器人自动抓取,非本站原创。 浮游电影网不对本文拥有版权,如有侵犯,请联系邮箱:fuyouu#yandex.com[#换成@]投诉。我们会在15个工作日内删除。 但烦请转载时请标明出处:“本文转载于『浮游电影网』,原文地址:https://www.fuyouu.com/21293.html

评论吧骚年!

发表你的见解   

昵称*

E-mail*(建议输入,以便收到博主回复的提示邮件)

验证码*

您可以使用eMule或eMule Mod(Windows)、aMule(Win、Linux、Mac)等软件下载eD2k链接。。
eMule收藏集(.emulecollection)文件是您选中的所有链接的列表文件。eMule可以直接下载它们。
按住SHIFT键选择可以选中多个选择框。
可用文件名和大小选择器来选择文件。
文件名选择器帮您根据文件名称或后缀来选择文件。不分大小写。
符号使用:
和:空格( )、+
不包含:-
或:|
转义:一对英文引号("");
匹配开头:^
匹配结尾:$
例如:
选中所有名称中包含有“eMule”或“0.49c”字眼,但不包含有“exe”字眼的:emule|0.49c -exe
选中所有名称的开头是“eMule”,结尾是“0.49c”的:^emule 0.49c$
选中所有名称中带有“eMule 0.49c”的(必须是“eMule 0.49c”,中间没有别的字符,不能是“eMule fake 0.49c”),需要转义:"emule 0.49c"
大小选择器帮您根据文件大小选择文件。