当前位置: 首页 >> 国产电影 >> 幸运贩卖机[国语配音/中文字幕].Lucky.Man.2022.2160p.WEB-DL.H265.AAC-NewWEB 1.98GB >> 正文

幸运贩卖机[国语配音/中文字幕].Lucky.Man.2022.2160p.WEB-DL.H265.AAC-NewWEB 1.98GB

2022年04月13日 14:13:34     电影发布:来源于网络     电影分类:国产电影     评论(0)    

幸运贩卖机[国语配音/中文字幕].Lucky.Man.2022.2160p.WEB DL.H265.AAC NewWEB 1.98GB 奇幻 爱情 剧情 国产电影  第1张

◎译 名 幸运贩卖机

◎年 代 2022

◎产 地 中国大陆

◎类 别 剧情 / 爱情 / 奇幻

◎语 言 汉语普通话

◎IMDb链接 https://www.imdb.com/title//

◎豆瓣链接 https://movie.douban.com/subject/35744310/

◎编 剧 毕慷 Kang Bi (id:1375192)

◎演 员 喻恩泰 Entai Yu (id:1274271)

王真儿 Zhen'er Wang (id:1346550)

段小薇 Xiaowei Duan (id:1411813)

罗辑 Ji Luo (id:1417084)

◎简 介

影片讲述了努力工作的苏新(喻恩泰 饰)幻想一夜成名,但事与愿违,苏新被倒霉的乌云笼罩,并将这一切怪罪在婚姻上。就在他绝望之际,偶然发现一个可以购买幸运的神奇机器,从此他的人生发生了翻天覆地的变化......

  1. ##### MediaInfo ######

  2. General

  3. Unique ID : 148269875907879133903166225945292904397 (0x6F8BBD486940DCC1B710133E777F17CD)

  4. Complete name : Lucky.Man.2022.2160p.WEB-DL.H265.AAC-PTerWEB.mkv

  5. Format : Matroska

  6. Format version : Version 4

  7. File size : 1.98 GiB

  8. Duration : 1 h 26 min

  9. Overall bit rate : 3 293 kb/s

  10. Encoded date : UTC 2022-04-12 02:17:11

  11. Writing application : mkvmerge v58.0.0 ('Supper's Ready') 64-bit

  12. Writing library : libebml v1.4.2 + libmatroska v1.6.4

  13. Video

  14. ID : 1

  15. Format : HEVC

  16. Format/Info : High Efficiency Video Coding

  17. Format profile : [email protected]@Main

  18. Codec ID : V_MPEGH/ISO/HEVC

  19. Duration : 1 h 26 min

  20. Bit rate : 3 165 kb/s

  21. Width : 3 840 pixels

  22. Height : 2 160 pixels

  23. Display aspect ratio : 16:9

  24. Frame rate mode : Constant

  25. Frame rate : 24.000 FPS

  26. Color space : YUV

  27. Chroma subsampling : 4:2:0

  28. Bit depth : 8 bits

  29. Bits/(Pixel*Frame) : 0.016

  30. Stream size : 1.90 GiB (96%)

  31. Language : Chinese

  32. Default : Yes

  33. Forced : No

  34. Color range : Limited

  35. Color primaries : BT.709

  36. Matrix coefficients : BT.709

  37. Audio

  38. ID : 2

  39. Format : AAC LC

  40. Format/Info : Advanced Audio Codec Low Complexity

  41. Codec ID : A_AAC-2

  42. Duration : 1 h 26 min

  43. Bit rate : 125 kb/s

  44. Channel(s) : 2 channels

  45. Channel layout : L R

  46. Sampling rate : 48.0 kHz

  47. Frame rate : 46.875 FPS (1024 SPF)

  48. Compression mode : Lossy

  49. Delay relative to video : -42 ms

  50. Stream size : 77.2 MiB (4%)

  51. Language : Chinese

  52. Default : Yes

  53. Forced : No


复制代码



文件下载


除非特别注明,本文『幸运贩卖机[国语配音/中文字幕].Lucky.Man.2022.2160p.WEB-DL.H265.AAC-NewWEB 1.98GB』来源于互联网机器人自动抓取,非本站原创。 浮游电影网不对本文拥有版权,如有侵犯,请联系邮箱:fuyouu#yandex.com[#换成@]投诉。我们会在15个工作日内删除。 但烦请转载时请标明出处:“本文转载于『浮游电影网』,原文地址:https://www.fuyouu.com/21288.html

评论吧骚年!

发表你的见解   

昵称*

E-mail*(建议输入,以便收到博主回复的提示邮件)

验证码*

您可以使用eMule或eMule Mod(Windows)、aMule(Win、Linux、Mac)等软件下载eD2k链接。。
eMule收藏集(.emulecollection)文件是您选中的所有链接的列表文件。eMule可以直接下载它们。
按住SHIFT键选择可以选中多个选择框。
可用文件名和大小选择器来选择文件。
文件名选择器帮您根据文件名称或后缀来选择文件。不分大小写。
符号使用:
和:空格( )、+
不包含:-
或:|
转义:一对英文引号("");
匹配开头:^
匹配结尾:$
例如:
选中所有名称中包含有“eMule”或“0.49c”字眼,但不包含有“exe”字眼的:emule|0.49c -exe
选中所有名称的开头是“eMule”,结尾是“0.49c”的:^emule 0.49c$
选中所有名称中带有“eMule 0.49c”的(必须是“eMule 0.49c”,中间没有别的字符,不能是“eMule fake 0.49c”),需要转义:"emule 0.49c"
大小选择器帮您根据文件大小选择文件。