当前位置: 首页 >> 海外电影 >> 伟大的梦想[中文字幕].I.Was.A.Dreamer.2016.1080p.WEB-DL.H264.AAC-NewWEB 3.84GB >> 正文

伟大的梦想[中文字幕].I.Was.A.Dreamer.2016.1080p.WEB-DL.H264.AAC-NewWEB 3.84GB

2022年04月13日 14:10:21     电影发布:来源于网络     电影分类:海外电影     评论(0)    

伟大的梦想[中文字幕].I.Was.A.Dreamer.2016.1080p.WEB DL.H264.AAC NewWEB 3.84GB 剧情 海外电影  第1张

◎译 名 伟大的梦想 / 曾经梦想 / 最大的梦想 / I Was a Dreamer

◎片 名 Il Più Grande Sogno

◎年 代 2016

◎产 地 意大利

◎类 别 剧情

◎语 言 意大利语 / 英语

◎上映日期 2016-09-04(威尼斯电影节)

◎IMDb链接 https://www.imdb.com/title/tt6034028/

◎豆瓣链接 https://movie.douban.com/subject/26845019/

◎片 长 97分钟

◎导 演 Michele Vannucci Michele Vannucci (id:1387893)

◎演 员 亚历桑德罗·博尔吉 Alessandro Borghi (id:1382638)

伊瓦娜·洛蒂托 Ivana Lotito (id:1247548)

Milena Mancini (id:1223851)

米尔科·弗雷扎 Mirko Frezza (id:1417112)

◎简 介

漫长的八年牢狱生活结束后,39岁的米尔科终于重新呼吸到了自由的空气。这一次,他决定洗心革面重新做人。在最初的计划里,米尔科只是想要和妻子重新开始,找回两个女儿的爱,一家四口在罗马城郊过好自己的小日子。直到有一天,米尔科被意外地选为他所在地区的社区代表,从此,他开始有了一个更大的梦想。米尔科为此倾尽全力,但是实现梦想却并没有那么简单……

◎获奖情况 (共1项)

第73届威尼斯电影节 (2016)

地平线单元奖 最佳影片(提名)

└──Michele Vannucci (id:1387893)

  1. ##### MediaInfo ######

  2. General

  3. Complete name : I Was A Dreamer 2016 1080p WEB-DL H264 AAC-PTerWEB.mp4

  4. Format : MPEG-4

  5. Format profile : Base Media

  6. Codec ID : isom (isom/iso2/avc1/mp41)

  7. File size : 3.84 GiB

  8. Duration : 1 h 42 min

  9. Overall bit rate : 5 372 kb/s

  10. Movie name : 伟大的梦想

  11. Writing application : Lavf58.32.104

  12. Cover : Yes

  13. Video

  14. ID : 1

  15. Format : AVC

  16. Format/Info : Advanced Video Codec

  17. Format profile : [email protected]

  18. Format settings : CABAC / 6 Ref Frames

  19. Format settings, CABAC : Yes

  20. Format settings, Reference frames : 6 frames

  21. Codec ID : avc1

  22. Codec ID/Info : Advanced Video Coding

  23. Duration : 1 h 42 min

  24. Bit rate : 5 047 kb/s

  25. Width : 1 920 pixels

  26. Height : 804 pixels

  27. Display aspect ratio : 2.40:1

  28. Frame rate mode : Variable

  29. Frame rate : 24.000 FPS

  30. Minimum frame rate : 23.810 FPS

  31. Maximum frame rate : 24.390 FPS

  32. Color space : YUV

  33. Chroma subsampling : 4:2:0

  34. Bit depth : 8 bits

  35. Scan type : Progressive

  36. Bits/(Pixel*Frame) : 0.136

  37. Stream size : 3.60 GiB (94%)

  38. Color range : Limited

  39. Color primaries : BT.709

  40. Transfer characteristics : BT.709

  41. Matrix coefficients : BT.709

  42. Codec configuration box : avcC

  43. Audio

  44. ID : 2

  45. Format : AAC LC

  46. Format/Info : Advanced Audio Codec Low Complexity

  47. Codec ID : mp4a-40-2

  48. Duration : 1 h 42 min

  49. Bit rate mode : Constant

  50. Bit rate : 317 kb/s

  51. Channel(s) : 2 channels

  52. Channel layout : L R

  53. Sampling rate : 48.0 kHz

  54. Frame rate : 46.875 FPS (1024 SPF)

  55. Compression mode : Lossy

  56. Stream size : 232 MiB (6%)

  57. Default : Yes

  58. Alternate group : 1




文件下载


除非特别注明,本文『伟大的梦想[中文字幕].I.Was.A.Dreamer.2016.1080p.WEB-DL.H264.AAC-NewWEB 3.84GB』来源于互联网机器人自动抓取,非本站原创。 浮游电影网不对本文拥有版权,如有侵犯,请联系邮箱:fuyouu#yandex.com[#换成@]投诉。我们会在15个工作日内删除。 但烦请转载时请标明出处:“本文转载于『浮游电影网』,原文地址:https://www.fuyouu.com/21285.html

评论吧骚年!

发表你的见解   

昵称*

E-mail*(建议输入,以便收到博主回复的提示邮件)

验证码*

您可以使用eMule或eMule Mod(Windows)、aMule(Win、Linux、Mac)等软件下载eD2k链接。。
eMule收藏集(.emulecollection)文件是您选中的所有链接的列表文件。eMule可以直接下载它们。
按住SHIFT键选择可以选中多个选择框。
可用文件名和大小选择器来选择文件。
文件名选择器帮您根据文件名称或后缀来选择文件。不分大小写。
符号使用:
和:空格( )、+
不包含:-
或:|
转义:一对英文引号("");
匹配开头:^
匹配结尾:$
例如:
选中所有名称中包含有“eMule”或“0.49c”字眼,但不包含有“exe”字眼的:emule|0.49c -exe
选中所有名称的开头是“eMule”,结尾是“0.49c”的:^emule 0.49c$
选中所有名称中带有“eMule 0.49c”的(必须是“eMule 0.49c”,中间没有别的字符,不能是“eMule fake 0.49c”),需要转义:"emule 0.49c"
大小选择器帮您根据文件大小选择文件。