当前位置: 首页 >> 欧美电影 >> 兔头男复仇记[简体字幕].Bunnyman.Vengeance.2017.1080p.WEB-DL.AAC2.0.H.264-CTRLWEB 3.26GB >> 正文

兔头男复仇记[简体字幕].Bunnyman.Vengeance.2017.1080p.WEB-DL.AAC2.0.H.264-CTRLWEB 3.26GB

2022年04月13日 14:06:47     电影发布:来源于网络     电影分类:欧美电影     评论(0)    

兔头男复仇记[简体字幕].Bunnyman.Vengeance.2017.1080p.WEB DL.AAC2.0.H.264 CTRLWEB 3.26GB 恐怖 欧美电影  第1张

◎译 名 兔头男复仇记 / Bunnyman Vengeance

◎片 名 Bunnyman 3

◎年 代 2017

◎产 地 美国

◎类 别 恐怖

◎语 言 英语

◎上映日期 2017-10-20(美国)

◎IMDb链接 https://www.imdb.com/title/tt3629032/

◎豆瓣链接 https://movie.douban.com/subject/26307062/

◎片 长 108分钟

◎演 员 布里安娜·威廉姆斯 Boriana Williams (id:1400807)

布拉德利·邦迪 Bradley Bundlie (id:1455304)

Caitlin Rose Williams Caitlin Rose Williams (id:1455976)

Lily Dowling Lily Dowling (id:1455974)

Toby Marks Toby Marks (id:1455979)

Debby Gerber Debby Gerber (id:1455981)

◎简 介

恶名昭彰的连续杀人狂「兔子男」,在历经多场疯狂杀戮后回到了出生的家乡,正好遇上嗜血的家人在策划新的屠杀行动。他们邀请兔子男加入,却又在行动中利用了他的不堪过去,此举让兔子男的情绪疯狂失控,嗜血的野性再度爆发!当野兽失去理性,就算是家人也可能成为下一个目标。

  1. ##### MediaInfo ######

  2. General

  3. Unique ID : 145919015933212444009090131887993535722 (0x6DC6FAEFF7F1ACB6AEE1F26B1ACE3CEA)

  4. Complete name : [email protected].mkv

  5. Format : Matroska

  6. Format version : Version 4

  7. File size : 3.26 GiB

  8. Duration : 1 h 31 min

  9. Overall bit rate : 5 126 kb/s

  10. Encoded date : UTC 2022-04-11 05:02:13

  11. Writing application : mkvmerge v65.0.0 ('Too Much') 64-bit

  12. Writing library : libebml v1.4.2 + libmatroska v1.6.4

  13. Video

  14. ID : 1

  15. Format : AVC

  16. Format/Info : Advanced Video Codec

  17. Format profile : [email protected]

  18. Format settings : 3 Ref Frames

  19. Format settings, CABAC : No

  20. Format settings, Reference frames : 3 frames

  21. Format settings, GOP : M=1, N=30

  22. Codec ID : V_MPEG4/ISO/AVC

  23. Duration : 1 h 31 min

  24. Bit rate : 4 995 kb/s

  25. Width : 1 920 pixels

  26. Height : 1 080 pixels

  27. Display aspect ratio : 16:9

  28. Frame rate mode : Constant

  29. Frame rate : 30.000 FPS

  30. Color space : YUV

  31. Chroma subsampling : 4:2:0

  32. Bit depth : 8 bits

  33. Scan type : Progressive

  34. Bits/(Pixel*Frame) : 0.080

  35. Stream size : 3.18 GiB (97%)

  36. Language : English

  37. Default : Yes

  38. Forced : No

  39. Audio

  40. ID : 2

  41. Format : AAC LC

  42. Format/Info : Advanced Audio Codec Low Complexity

  43. Codec ID : A_AAC-2

  44. Duration : 1 h 31 min

  45. Bit rate : 128 kb/s

  46. Channel(s) : 2 channels

  47. Channel layout : L R

  48. Sampling rate : 44.1 kHz

  49. Frame rate : 43.066 FPS (1024 SPF)

  50. Compression mode : Lossy

  51. Stream size : 83.4 MiB (2%)

  52. Title : English

  53. Language : English

  54. Default : Yes

  55. Forced : No

  56. Text #1

  57. ID : 3

  58. Format : UTF-8

  59. Codec ID : S_TEXT/UTF8

  60. Codec ID/Info : UTF-8 Plain Text

  61. Duration : 1 h 26 min

  62. Bit rate : 11 b/s

  63. Count of elements : 321

  64. Stream size : 7.36 KiB (0%)

  65. Title : Chinese Simplified

  66. Language : Chinese

  67. Default : Yes

  68. Forced : No

  69. Text #2

  70. ID : 4

  71. Format : UTF-8

  72. Codec ID : S_TEXT/UTF8

  73. Codec ID/Info : UTF-8 Plain Text

  74. Duration : 1 h 26 min

  75. Bit rate : 11 b/s

  76. Count of elements : 321

  77. Stream size : 7.36 KiB (0%)

  78. Title : Chinese Traditional

  79. Language : Chinese

  80. Default : Yes

  81. Forced : No


复制代码

、、



文件下载


除非特别注明,本文『兔头男复仇记[简体字幕].Bunnyman.Vengeance.2017.1080p.WEB-DL.AAC2.0.H.264-CTRLWEB 3.26GB』来源于互联网机器人自动抓取,非本站原创。 浮游电影网不对本文拥有版权,如有侵犯,请联系邮箱:fuyouu#yandex.com[#换成@]投诉。我们会在15个工作日内删除。 但烦请转载时请标明出处:“本文转载于『浮游电影网』,原文地址:https://www.fuyouu.com/21282.html

评论吧骚年!

发表你的见解   

昵称*

E-mail*(建议输入,以便收到博主回复的提示邮件)

验证码*

您可以使用eMule或eMule Mod(Windows)、aMule(Win、Linux、Mac)等软件下载eD2k链接。。
eMule收藏集(.emulecollection)文件是您选中的所有链接的列表文件。eMule可以直接下载它们。
按住SHIFT键选择可以选中多个选择框。
可用文件名和大小选择器来选择文件。
文件名选择器帮您根据文件名称或后缀来选择文件。不分大小写。
符号使用:
和:空格( )、+
不包含:-
或:|
转义:一对英文引号("");
匹配开头:^
匹配结尾:$
例如:
选中所有名称中包含有“eMule”或“0.49c”字眼,但不包含有“exe”字眼的:emule|0.49c -exe
选中所有名称的开头是“eMule”,结尾是“0.49c”的:^emule 0.49c$
选中所有名称中带有“eMule 0.49c”的(必须是“eMule 0.49c”,中间没有别的字符,不能是“eMule fake 0.49c”),需要转义:"emule 0.49c"
大小选择器帮您根据文件大小选择文件。