当前位置: 首页 >> 日韩电影 >> 今天也是招人嫌的便当[简体字幕].Bento.Harassment.2019.BluRay.1080p.DTS-HD.MA.5.1.x264-OPT 14.46GB >> 正文

今天也是招人嫌的便当[简体字幕].Bento.Harassment.2019.BluRay.1080p.DTS-HD.MA.5.1.x264-OPT 14.46GB

2022年04月13日 14:05:39     电影发布:来源于网络     电影分类:日韩电影     评论(0)    

今天也是招人嫌的便当[简体字幕].Bento.Harassment.2019.BluRay.1080p.DTS HD.MA.5.1.x264 OPT 14.46GB 家庭 剧情 日韩电影  第1张

◎译 名 今天也是招人嫌的便当 / 恶搞便当反「激」战(港) / 今天也要用便當出擊(台) / Ky? mo iyagarase bent? / Bento Harassment

◎片 名 今日も嫌がらせ弁当

◎年 代 2019

◎产 地 日本

◎类 别 剧情 / 家庭

◎语 言 日语

◎上映日期 2019-06-15(上海电影节) / 2019-06-28(日本)

◎IMDb链接 https://www.imdb.com/title/tt9810090/

◎豆瓣评分 7.1/10 (2656人评价)

◎豆瓣链接 https://movie.douban.com/subject/30174424/

◎片 长 106分钟

◎导 演 塚本连平 Renpei Tsukamoto (id:1359802)

◎编 剧 塚本连平 Renpei Tsukamoto (id:1359802)

◎演 员 筱原凉子 Ryoko Shinohara (id:1139214)

芳根京子 Ky?ko Yoshine (id:1348883)

松井玲奈 Rena Matsui (id:1313353)

佐藤宽太 Kanta Sato (id:1353709)

佐藤隆太 Ry?ta Sat? (id:1179886)

山谷花纯 Yamaya Kasumi (id:1328849)

小吹奈合绪 Kobuki Nanao (id:1453818)

柳田裕男 Hiroo Yanagida (id:1441558)

◎简 介

双叶(芳根京子 饰)和若叶(松井玲奈 饰)是一对相依为命的姐妹,她们自幼由母亲香织(筱原凉子 饰)拉扯长大。因为父亲的缺席,全家的生活重担都落在了香织的身上,埋首于工作的她无可奈何的忽略和女儿们的沟通,可以这么说,若叶一直都是双叶在照顾和陪伴,因此若叶的性格十分的古怪,和母亲之间的关系也格外淡漠。

渐渐地,香织意识到不能再任由亲子关系再继续这样恶化下去了,于是,她决定利用做便当来传递自己对孩子们的感情。香织总是将便当做的很可爱,可是若叶偏偏最讨厌可爱的东西,香织的便当让她在学校里受到了同学们的嘲笑。但随着时间的推移,若叶渐渐的从便当上感受到了母亲的爱。

  1. ##### MediaInfo ######

  2. General

  3. Unique ID : 194715787900162002463602947272169278827 (0x927CE58B42896B66FC0B9E81350CCD6B)

  4. Complete name : Bento.Harassment.2019.BluRay.1080p.DTS-HD.MA.5.1.x264-HDH.mkv

  5. Format : Matroska

  6. Format version : Version 4

  7. File size : 14.5 GiB

  8. Duration : 1 h 46 min

  9. Overall bit rate mode : Variable

  10. Overall bit rate : 19.5 Mb/s

  11. Encoded date : UTC 2020-01-24 00:01:52

  12. Writing application : mkvmerge v40.0.0 ('Old Town Road + Pony') 64-bit

  13. Writing library : libebml v1.3.9 + libmatroska v1.5.2

  14. Video

  15. ID : 1

  16. Format : AVC

  17. Format/Info : Advanced Video Codec

  18. Format profile : [email protected]

  19. Format settings : CABAC / 4 Ref Frames

  20. Format settings, CABAC : Yes

  21. Format settings, Reference frames : 4 frames

  22. Codec ID : V_MPEG4/ISO/AVC

  23. Duration : 1 h 46 min

  24. Bit rate : 15.7 Mb/s

  25. Width : 1 920 pixels

  26. Height : 1 040 pixels

  27. Display aspect ratio : 1.85:1

  28. Frame rate mode : Constant

  29. Frame rate : 23.976 (24000/1001/53354) FPS

  30. Color space : YUV

  31. Chroma subsampling : 4:2:0

  32. Bit depth : 8 bits

  33. Scan type : Progressive

  34. Bits/(Pixel*Frame) : 0.327

  35. Stream size : 11.6 GiB (80%)

  36. Writing library : x264 core 142 r2431+42 c69a006 tMod [[email protected]:2:0 X86_64]

  37. Encoding settings : cabac=1 / ref=4 / deblock=1:-3:-3 / analyse=0x3:0x113 / me=umh / subme=10 / psy=1 / fade_compensate=0.00 / psy_rd=1.00:0.05 / mixed_ref=1 / me_range=48 / chroma_me=1 / trellis=2 / 8x8dct=1 / cqm=0 / deadzone=21,11 / fast_pskip=0 / chroma_qp_offset=-2 / threads=48 / lookahead_threads=8 / sliced_threads=0 / nr=0 / decimate=1 / interlaced=0 / NTMzNTQ= / bluray_compat=0 / constrained_intra=0 / fgo=0 / bframes=8 / b_pyramid=2 / b_adapt=2 / b_bias=0 / direct=3 / weightb=1 / open_gop=0 / weightp=2 / keyint=250 / keyint_min=23 / NTMzNTQ=uuDQuD2mJt9fsCf / scenecut=40 / intra_refresh=0 / rc_lookahead=40 / rc=crf / mbtree=0 / crf=17.6000 / qcomp=0.60 / qpmin=0:0:0 / qpmax=69:69:69 / qpstep=4 / vbv_maxrate=40000 / vbv_bufsize=30000 / crf_max=0.0 / nal_hrd=none / filler=0 / NTMzNTQ=LmsMAP37EqsCpk / ip_ratio=1.40 / pb_ratio=1.30 / aq=3:0.80 / aq-sensitivity=10.00 / aq-factor=1.00:1.00:1.00 / aq2=0 / aq3=0

  38. Default : Yes

  39. Forced : No

  40. Color range : Limited

  41. Matrix coefficients : BT.709

  42. Audio

  43. ID : 2

  44. Format : DTS XLL

  45. Format/Info : Digital Theater Systems

  46. Commercial name : DTS-HD Master Audio

  47. Codec ID : A_DTS

  48. Duration : 1 h 46 min

  49. Bit rate mode : Variable

  50. Bit rate : 3 776 kb/s

  51. Channel(s) : 6 channels

  52. Channel layout : C L R Ls Rs LFE

  53. Sampling rate : 48.0 kHz

  54. Frame rate : 93.750 FPS (512 SPF)

  55. Bit depth : 24 bits

  56. Compression mode : Lossless

  57. Stream size : 2.80 GiB (19%)

  58. Language : Japanese

  59. Default : Yes

  60. Forced : No

  61. Text #1

  62. ID : 3

  63. Format : PGS

  64. Muxing mode : zlib

  65. Codec ID : S_HDMV/PGS

  66. Codec ID/Info : Picture based subtitle format used on BDs/HD-DVDs

  67. Duration : 1 h 45 min

  68. Bit rate : 28.3 kb/s

  69. Count of elements : 2378

  70. Stream size : 21.4 MiB (0%)

  71. Language : Chinese

  72. Default : Yes

  73. Forced : No

  74. Text #2

  75. ID : 4

  76. Format : PGS

  77. Muxing mode : zlib

  78. Codec ID : S_HDMV/PGS

  79. Codec ID/Info : Picture based subtitle format used on BDs/HD-DVDs

  80. Duration : 1 h 45 min

  81. Bit rate : 28.8 kb/s

  82. Count of elements : 2378

  83. Stream size : 21.8 MiB (0%)

  84. Language : Chinese

  85. Default : No

  86. Forced : No

  87. Menu

  88. 00:00:00.000 : :绗?01 绔?

  89. 00:13:06.828 : :绗?02 绔?

  90. 00:20:58.507 : :绗?03 绔?

  91. 00:27:28.772 : :绗?04 绔?

  92. 00:34:53.466 : :绗?05 绔?

  93. 00:40:54.661 : :绗?06 绔?

  94. 00:49:24.170 : :绗?07 绔?

  95. 00:57:05.047 : :绗?08 绔?

  96. 01:08:53.880 : :绗?09 绔?

  97. 01:18:55.439 : :绗?10 绔?

  98. 01:29:07.509 : :绗?11 绔?

  99. 01:42:08.748 : :绗?12 绔?


复制代码



文件下载


除非特别注明,本文『今天也是招人嫌的便当[简体字幕].Bento.Harassment.2019.BluRay.1080p.DTS-HD.MA.5.1.x264-OPT 14.46GB』来源于互联网机器人自动抓取,非本站原创。 浮游电影网不对本文拥有版权,如有侵犯,请联系邮箱:fuyouu#yandex.com[#换成@]投诉。我们会在15个工作日内删除。 但烦请转载时请标明出处:“本文转载于『浮游电影网』,原文地址:https://www.fuyouu.com/21281.html

评论吧骚年!

发表你的见解   

昵称*

E-mail*(建议输入,以便收到博主回复的提示邮件)

验证码*

您可以使用eMule或eMule Mod(Windows)、aMule(Win、Linux、Mac)等软件下载eD2k链接。。
eMule收藏集(.emulecollection)文件是您选中的所有链接的列表文件。eMule可以直接下载它们。
按住SHIFT键选择可以选中多个选择框。
可用文件名和大小选择器来选择文件。
文件名选择器帮您根据文件名称或后缀来选择文件。不分大小写。
符号使用:
和:空格( )、+
不包含:-
或:|
转义:一对英文引号("");
匹配开头:^
匹配结尾:$
例如:
选中所有名称中包含有“eMule”或“0.49c”字眼,但不包含有“exe”字眼的:emule|0.49c -exe
选中所有名称的开头是“eMule”,结尾是“0.49c”的:^emule 0.49c$
选中所有名称中带有“eMule 0.49c”的(必须是“eMule 0.49c”,中间没有别的字符,不能是“eMule fake 0.49c”),需要转义:"emule 0.49c"
大小选择器帮您根据文件大小选择文件。