当前位置: 首页 >> 国产电影 >> 我最好朋友的婚礼[国语音轨/中文字幕].My.Best.Friends.Wedding.2016.CHINESE.1080p.NF.WEBRip.DDP5.1.x264-PLB 2.85GB >> 正文

我最好朋友的婚礼[国语音轨/中文字幕].My.Best.Friends.Wedding.2016.CHINESE.1080p.NF.WEBRip.DDP5.1.x264-PLB 2.85GB

2022年04月12日 14:55:56     电影发布:来源于网络     电影分类:国产电影     评论(0)    

我最好朋友的婚礼[国语音轨/中文字幕].My.Best.Friends.Wedding.2016.CHINESE.1080p.NF.WEBRip.DDP5.1.x264 PLB 2.85GB 爱情 喜剧 国产电影  第1张

◎译 名 我最好朋友的婚礼 / 我最好朋友的婚礼中国版 / My Best Friend’s Wedding

◎年 代 2016

◎产 地 中国大陆 / 美国

◎类 别 喜剧 / 爱情

◎语 言 汉语普通话

◎上映日期 2016-08-05(中国大陆)

◎IMDb链接 https://www.imdb.com/title/tt5275314/

◎豆瓣评分 4.4/10 (25698人评价)

◎豆瓣链接 https://movie.douban.com/subject/26394441/

◎片 长 91分钟

◎导 演 陈飞宏 Feihong Chen (id:1360198)

陈奕利 Alexi Tan (id:1313282)

◎编 剧 付鳞然 Linran Fu (id:1469869)

顿河 He Dun (id:1417592)

红九 Hong Jiu (id:1469851)

罗纳德·巴斯 Ronald Bass (id:1000687)

李潇 Xiao Li (id:1320932)

于淼 Miao Yu (id:1321152)

◎演 员 舒淇 Qi Shu (id:1138320)

冯绍峰 Shaofeng Feng (id:1275721)

宋茜 Victoria Song (id:1315608)

叶青 Qing Ye (id:1315746)

凤小岳 Rhydian Vaughan (id:1274684)

洛博·陈 Lobo Chan (id:1370256)

李坤珏 Kunjue Li (id:1336077)

徐忱 Chen Xu (id:1378357)

滕华涛 Hua-Tao Teng (id:1314569)

司维维 Weiwei Si (id:1376311)

◎简 介

影片改编自好莱坞同名经典爱情喜剧。顾佳(舒淇 饰)是国内某时尚杂志的新任主编,奉命去米兰参加时装周。一通意外的电话让她刚刚落地就放弃了工作安排飞往伦敦。因为她曾经逃避但其实内心深爱的男人林然 (冯绍峰 饰)马上就要和一位年轻富家女萱萱(宋茜 饰)结婚,她想在婚礼之前把新郎抢回来。在飞往伦敦的飞机上,顾佳邂逅了型男Nick(凤小岳 饰),她一直出糗,令Nick非常尴尬。见面后,林然的准新娘萱萱却待她亲如姐妹。尽管内心矛盾,顾佳还是有意无意的制造着麻烦,并因为一个误会使婚礼无法在英国如期举行,但林然和萱萱情比金坚,顾佳决定安排林然和萱萱去意大利办婚礼。在米兰,顾佳鼓起勇气和林然表白,却意外被萱萱撞见,三人在街头展开了追逐……

  1. Video

  2. ID : 1

  3. Format : AVC

  4. Format/Info : Advanced Video Codec

  5. Format profile : [email protected]

  6. Format settings : CABAC / 3 Ref Frames

  7. Format settings, CABAC : Yes

  8. Format settings, Reference frames : 3 frames

  9. Codec ID : V_MPEG4/ISO/AVC

  10. Duration : 1 h 31 min

  11. Bit rate mode : Variable

  12. Bit rate : 3 830 kb/s

  13. Maximum bit rate : 5 745 kb/s

  14. Width : 1 920 pixels

  15. Height : 1 080 pixels

  16. Display aspect ratio : 16:9

  17. Frame rate mode : Constant

  18. Frame rate : 23.976 (24000/1001/53354) FPS

  19. Color space : YUV

  20. Chroma subsampling : 4:2:0

  21. Bit depth : 8 bits

  22. Scan type : Progressive

  23. Bits/(Pixel*Frame) : 0.077

  24. Stream size : 2.43 GiB (86%)

  25. Writing library : x264 core 148 r2722 1b0121b

  26. Encoding settings : cabac=1 / ref=3 / deblock=1:0:0 / analyse=0x1:0x111 / me=umh / subme=10 / psy=1 / psy_rd=1.00:0.00 / mixed_ref=1 / me_range=24 / chroma_me=1 / trellis=2 / 8x8dct=0 / cqm=0 / deadzone=21,11 / fast_pskip=1 / chroma_qp_offset=-2 / threads=8 / lookahead_threads=1 / sliced_threads=0 / nr=0 / decimate=1 / interlaced=0 / NTMzNTQ= / bluray_compat=0 / stitchable=1 / constrained_intra=0 / bframes=2 / b_pyramid=0 / b_adapt=2 / b_bias=0 / direct=3 / weightb=1 / open_gop=0 / weightp=2 / keyint=48 / keyint_min=25 / scenecut=0 / intra_refresh=0 / rc_lookahead=48 / rc=2pass / mbtree=1 / bitrate=3830 / ratetol=1.0 / qcomp=0.50 / qpmin=6 / qpmax=51 / qpstep=4 / cplxblur=20.0 / qblur=0.5 / vbv_maxrate=5745 / vbv_bufsize=7660 / nal_hrd=vbr / filler=0 / NTMzNTQ=LmsMAP37EqsCpk / ip_ratio=1.40 / aq=1:1.00

  27. Default : Yes

  28. Forced : No


  29. Audio

  30. ID : 2

  31. Format : E-AC-3

  32. Format/Info : Enhanced AC-3

  33. Commercial name : Dolby Digital Plus

  34. Codec ID : A_EAC3

  35. Duration : 1 h 31 min

  36. Bit rate mode : Constant

  37. Bit rate : 640 kb/s

  38. Channel(s) : 6 channels

  39. Channel layout : L R C LFE Ls Rs

  40. Sampling rate : 48.0 kHz

  41. Frame rate : 31.250 FPS (1536 SPF)

  42. Bit depth : 32 bits

  43. Compression mode : Lossy

  44. Stream size : 417 MiB (14%)

  45. Title : Mandarin

  46. Language : Chinese

  47. Service kind : Complete Main

  48. Default : Yes

  49. Forced : No


  50. Text #1

  51. ID : 3

  52. Format : UTF-8

  53. Codec ID : S_TEXT/UTF8

  54. Codec ID/Info : UTF-8 Plain Text

  55. Duration : 1 h 29 min

  56. Bit rate : 79 b/s

  57. Count of elements : 1068

  58. Stream size : 52.5 KiB (0%)

  59. Language : Arabic

  60. Default : No

  61. Forced : No


  62. Text #2

  63. ID : 4

  64. Format : UTF-8

  65. Codec ID : S_TEXT/UTF8

  66. Codec ID/Info : UTF-8 Plain Text

  67. Duration : 1 h 29 min

  68. Bit rate : 41 b/s

  69. Count of elements : 1057

  70. Stream size : 27.4 KiB (0%)

  71. Language : Czech

  72. Default : No

  73. Forced : No


  74. Text #3

  75. ID : 5

  76. Format : UTF-8

  77. Codec ID : S_TEXT/UTF8

  78. Codec ID/Info : UTF-8 Plain Text

  79. Duration : 1 h 29 min

  80. Bit rate : 40 b/s

  81. Count of elements : 1053

  82. Stream size : 26.6 KiB (0%)

  83. Language : Danish

  84. Default : No

  85. Forced : No


  86. Text #4

  87. ID : 6

  88. Format : UTF-8

  89. Codec ID : S_TEXT/UTF8

  90. Codec ID/Info : UTF-8 Plain Text

  91. Duration : 1 h 29 min

  92. Bit rate : 49 b/s

  93. Count of elements : 1065

  94. Stream size : 32.7 KiB (0%)

  95. Language : German

  96. Default : No

  97. Forced : No


  98. Text #5

  99. ID : 7

  100. Format : UTF-8

  101. Codec ID : S_TEXT/UTF8

  102. Codec ID/Info : UTF-8 Plain Text

  103. Duration : 1 h 24 min

  104. Bit rate : 82 b/s

  105. Count of elements : 1059

  106. Stream size : 50.8 KiB (0%)

  107. Language : Greek

  108. Default : No

  109. Forced : No


  110. Text #6

  111. ID : 8

  112. Format : UTF-8

  113. Codec ID : S_TEXT/UTF8

  114. Codec ID/Info : UTF-8 Plain Text

  115. Duration : 1 h 23 min

  116. Bit rate : 43 b/s

  117. Count of elements : 914

  118. Stream size : 26.5 KiB (0%)

  119. Language : English

  120. Default : No

  121. Forced : No


  122. Text #7

  123. ID : 9

  124. Format : UTF-8

  125. Codec ID : S_TEXT/UTF8

  126. Codec ID/Info : UTF-8 Plain Text

  127. Duration : 1 h 23 min

  128. Bit rate : 48 b/s

  129. Count of elements : 1057

  130. Stream size : 29.6 KiB (0%)

  131. Title : Neutral

  132. Language : Spanish

  133. Default : No

  134. Forced : No


  135. Text #8

  136. ID : 10

  137. Format : UTF-8

  138. Codec ID : S_TEXT/UTF8

  139. Codec ID/Info : UTF-8 Plain Text

  140. Duration : 1 h 29 min

  141. Bit rate : 47 b/s

  142. Count of elements : 1059

  143. Stream size : 31.1 KiB (0%)

  144. Title : Castilian

  145. Language : Spanish

  146. Default : No

  147. Forced : No


  148. Text #9

  149. ID : 11

  150. Format : UTF-8

  151. Codec ID : S_TEXT/UTF8

  152. Codec ID/Info : UTF-8 Plain Text

  153. Duration : 1 h 29 min

  154. Bit rate : 44 b/s

  155. Count of elements : 886

  156. Stream size : 29.2 KiB (0%)

  157. Language : Finnish

  158. Default : No

  159. Forced : No


  160. Text #10

  161. ID : 12

  162. Format : UTF-8

  163. Codec ID : S_TEXT/UTF8

  164. Codec ID/Info : UTF-8 Plain Text

  165. Duration : 1 h 29 min

  166. Bit rate : 37 b/s

  167. Count of elements : 970

  168. Stream size : 24.8 KiB (0%)

  169. Language : French

  170. Default : No

  171. Forced : No


  172. Text #11

  173. ID : 13

  174. Format : UTF-8

  175. Codec ID : S_TEXT/UTF8

  176. Codec ID/Info : UTF-8 Plain Text

  177. Duration : 1 h 29 min

  178. Bit rate : 75 b/s

  179. Count of elements : 1061

  180. Stream size : 49.8 KiB (0%)

  181. Language : Hebrew

  182. Default : No

  183. Forced : No


  184. Text #12

  185. ID : 14

  186. Format : UTF-8

  187. Codec ID : S_TEXT/UTF8

  188. Codec ID/Info : UTF-8 Plain Text

  189. Duration : 1 h 29 min

  190. Bit rate : 120 b/s

  191. Count of elements : 1003

  192. Stream size : 79.2 KiB (0%)

  193. Language : Hindi

  194. Default : No

  195. Forced : No


  196. Text #13

  197. ID : 15

  198. Format : UTF-8

  199. Codec ID : S_TEXT/UTF8

  200. Codec ID/Info : UTF-8 Plain Text

  201. Duration : 1 h 29 min

  202. Bit rate : 45 b/s

  203. Count of elements : 1059

  204. Stream size : 29.6 KiB (0%)

  205. Language : Hungarian

  206. Default : No

  207. Forced : No


  208. Text #14

  209. ID : 16

  210. Format : UTF-8

  211. Codec ID : S_TEXT/UTF8

  212. Codec ID/Info : UTF-8 Plain Text

  213. Duration : 1 h 29 min

  214. Bit rate : 41 b/s

  215. Count of elements : 999

  216. Stream size : 27.5 KiB (0%)

  217. Language : Indonesian

  218. Default : No

  219. Forced : No


  220. Text #15

  221. ID : 17

  222. Format : UTF-8

  223. Codec ID : S_TEXT/UTF8

  224. Codec ID/Info : UTF-8 Plain Text

  225. Duration : 1 h 29 min

  226. Bit rate : 45 b/s

  227. Count of elements : 1060

  228. Stream size : 30.0 KiB (0%)

  229. Language : Italian

  230. Default : No

  231. Forced : No


  232. Text #16

  233. ID : 18

  234. Format : UTF-8

  235. Codec ID : S_TEXT/UTF8

  236. Codec ID/Info : UTF-8 Plain Text

  237. Duration : 1 h 29 min

  238. Bit rate : 43 b/s

  239. Count of elements : 1108

  240. Stream size : 28.5 KiB (0%)

  241. Language : Japanese

  242. Default : No

  243. Forced : No


  244. Text #17

  245. ID : 19

  246. Format : UTF-8

  247. Codec ID : S_TEXT/UTF8

  248. Codec ID/Info : UTF-8 Plain Text

  249. Duration : 1 h 29 min

  250. Bit rate : 49 b/s

  251. Count of elements : 1068

  252. Stream size : 32.9 KiB (0%)

  253. Language : Korean

  254. Default : No

  255. Forced : No


  256. Text #18

  257. ID : 20

  258. Format : UTF-8

  259. Codec ID : S_TEXT/UTF8

  260. Codec ID/Info : UTF-8 Plain Text

  261. Duration : 1 h 29 min

  262. Bit rate : 41 b/s

  263. Count of elements : 1026

  264. Stream size : 27.3 KiB (0%)

  265. Title : Bokm?l

  266. Language : Norwegian

  267. Default : No

  268. Forced : No


  269. Text #19

  270. ID : 21

  271. Format : UTF-8

  272. Codec ID : S_TEXT/UTF8

  273. Codec ID/Info : UTF-8 Plain Text

  274. Duration : 1 h 29 min

  275. Bit rate : 44 b/s

  276. Count of elements : 948

  277. Stream size : 29.1 KiB (0%)

  278. Language : Dutch

  279. Default : No

  280. Forced : No


  281. Text #20

  282. ID : 22

  283. Format : UTF-8

  284. Codec ID : S_TEXT/UTF8

  285. Codec ID/Info : UTF-8 Plain Text

  286. Duration : 1 h 29 min

  287. Bit rate : 38 b/s

  288. Count of elements : 1024

  289. Stream size : 25.5 KiB (0%)

  290. Language : Polish

  291. Default : No

  292. Forced : No


  293. Text #21

  294. ID : 23

  295. Format : UTF-8

  296. Codec ID : S_TEXT/UTF8

  297. Codec ID/Info : UTF-8 Plain Text

  298. Duration : 1 h 29 min

  299. Bit rate : 45 b/s

  300. Count of elements : 1063

  301. Stream size : 30.1 KiB (0%)

  302. Language : Portuguese

  303. Default : No

  304. Forced : No


  305. Text #22

  306. ID : 24

  307. Format : UTF-8

  308. Codec ID : S_TEXT/UTF8

  309. Codec ID/Info : UTF-8 Plain Text

  310. Duration : 1 h 29 min

  311. Bit rate : 47 b/s

  312. Count of elements : 1059

  313. Stream size : 31.3 KiB (0%)

  314. Title : Brazilian

  315. Language : Portuguese

  316. Default : No

  317. Forced : No


  318. Text #23

  319. ID : 25

  320. Format : UTF-8

  321. Codec ID : S_TEXT/UTF8

  322. Codec ID/Info : UTF-8 Plain Text

  323. Duration : 1 h 29 min

  324. Bit rate : 48 b/s

  325. Count of elements : 1067

  326. Stream size : 32.1 KiB (0%)

  327. Language : Romanian

  328. Default : No

  329. Forced : No


  330. Text #24

  331. ID : 26

  332. Format : UTF-8

  333. Codec ID : S_TEXT/UTF8

  334. Codec ID/Info : UTF-8 Plain Text

  335. Duration : 1 h 29 min

  336. Bit rate : 81 b/s

  337. Count of elements : 1064

  338. Stream size : 53.8 KiB (0%)

  339. Language : Russian

  340. Default : No

  341. Forced : No


  342. Text #25

  343. ID : 27

  344. Format : UTF-8

  345. Codec ID : S_TEXT/UTF8

  346. Codec ID/Info : UTF-8 Plain Text

  347. Duration : 1 h 29 min

  348. Bit rate : 45 b/s

  349. Count of elements : 1066

  350. Stream size : 29.8 KiB (0%)

  351. Language : Swedish

  352. Default : No

  353. Forced : No


  354. Text #26

  355. ID : 28

  356. Format : UTF-8

  357. Codec ID : S_TEXT/UTF8

  358. Codec ID/Info : UTF-8 Plain Text

  359. Duration : 1 h 29 min

  360. Bit rate : 98 b/s

  361. Count of elements : 1058

  362. Stream size : 64.9 KiB (0%)

  363. Language : Thai

  364. Default : No

  365. Forced : No


  366. Text #27

  367. ID : 29

  368. Format : UTF-8

  369. Codec ID : S_TEXT/UTF8

  370. Codec ID/Info : UTF-8 Plain Text

  371. Duration : 1 h 29 min

  372. Bit rate : 45 b/s

  373. Count of elements : 1059

  374. Stream size : 30.0 KiB (0%)

  375. Language : Turkish

  376. Default : No

  377. Forced : No


  378. Text #28

  379. ID : 30

  380. Format : UTF-8

  381. Codec ID : S_TEXT/UTF8

  382. Codec ID/Info : UTF-8 Plain Text

  383. Duration : 1 h 29 min

  384. Bit rate : 67 b/s

  385. Count of elements : 1061

  386. Stream size : 44.7 KiB (0%)

  387. Language : Ukrainian

  388. Default : No

  389. Forced : No


  390. Text #29

  391. ID : 31

  392. Format : UTF-8

  393. Codec ID : S_TEXT/UTF8

  394. Codec ID/Info : UTF-8 Plain Text

  395. Duration : 1 h 29 min

  396. Bit rate : 62 b/s

  397. Count of elements : 1005

  398. Stream size : 41.1 KiB (0%)

  399. Language : Vietnamese

  400. Default : No

  401. Forced : No


  402. Text #30

  403. ID : 32

  404. Format : UTF-8

  405. Codec ID : S_TEXT/UTF8

  406. Codec ID/Info : UTF-8 Plain Text

  407. Duration : 1 h 29 min

  408. Bit rate : 44 b/s

  409. Count of elements : 1059

  410. Stream size : 29.4 KiB (0%)

  411. Title : Simplified

  412. Language : Chinese

  413. Default : No

  414. Forced : No


  415. Text #31

  416. ID : 33

  417. Format : UTF-8

  418. Codec ID : S_TEXT/UTF8

  419. Codec ID/Info : UTF-8 Plain Text

  420. Duration : 1 h 23 min

  421. Bit rate : 46 b/s

  422. Count of elements : 1054

  423. Stream size : 28.8 KiB (0%)

  424. Title : Traditional

  425. Language : Chinese

  426. Default : No

  427. Forced : No

复制代码

我最好朋友的婚礼[国语音轨/中文字幕].My.Best.Friends.Wedding.2016.CHINESE.1080p.NF.WEBRip.DDP5.1.x264 PLB 2.85GB 爱情 喜剧 国产电影  第2张 我最好朋友的婚礼[国语音轨/中文字幕].My.Best.Friends.Wedding.2016.CHINESE.1080p.NF.WEBRip.DDP5.1.x264 PLB 2.85GB 爱情 喜剧 国产电影  第4张



文件下载


除非特别注明,本文『我最好朋友的婚礼[国语音轨/中文字幕].My.Best.Friends.Wedding.2016.CHINESE.1080p.NF.WEBRip.DDP5.1.x264-PLB 2.85GB』来源于互联网机器人自动抓取,非本站原创。 浮游电影网不对本文拥有版权,如有侵犯,请联系邮箱:fuyouu#yandex.com[#换成@]投诉。我们会在15个工作日内删除。 但烦请转载时请标明出处:“本文转载于『浮游电影网』,原文地址:https://www.fuyouu.com/21276.html

评论吧骚年!

发表你的见解   

昵称*

E-mail*(建议输入,以便收到博主回复的提示邮件)

验证码*

您可以使用eMule或eMule Mod(Windows)、aMule(Win、Linux、Mac)等软件下载eD2k链接。。
eMule收藏集(.emulecollection)文件是您选中的所有链接的列表文件。eMule可以直接下载它们。
按住SHIFT键选择可以选中多个选择框。
可用文件名和大小选择器来选择文件。
文件名选择器帮您根据文件名称或后缀来选择文件。不分大小写。
符号使用:
和:空格( )、+
不包含:-
或:|
转义:一对英文引号("");
匹配开头:^
匹配结尾:$
例如:
选中所有名称中包含有“eMule”或“0.49c”字眼,但不包含有“exe”字眼的:emule|0.49c -exe
选中所有名称的开头是“eMule”,结尾是“0.49c”的:^emule 0.49c$
选中所有名称中带有“eMule 0.49c”的(必须是“eMule 0.49c”,中间没有别的字符,不能是“eMule fake 0.49c”),需要转义:"emule 0.49c"
大小选择器帮您根据文件大小选择文件。