当前位置: 首页 >> 海外电影 >> 鬼妓回忆录[简体字幕].Masters.Of.Horror.Imprint.2006.BluRay.1080p.HEVC.10bit.MiniFHD-NewHD 4.49GB >> 正文

鬼妓回忆录[简体字幕].Masters.Of.Horror.Imprint.2006.BluRay.1080p.HEVC.10bit.MiniFHD-NewHD 4.49GB

2022年04月12日 14:53:54     电影发布:来源于网络     电影分类:海外电影     评论(0)    

鬼妓回忆录[简体字幕].Masters.Of.Horror.Imprint.2006.BluRay.1080p.HEVC.10bit.MiniFHD NewHD 4.49GB 恐怖 海外电影  第1张

◎译 名 鬼妓回忆录 / Masters Of Horror : Imprint / インプリント ~ぼっけえ、きょうてえ~

◎片 名 Imprint

◎年 代 2006

◎产 地 加拿大 / 日本 / 美国

◎类 别 恐怖

◎语 言 英语

◎上映日期 2006-04-07(英国)

◎IMDb链接 https://www.imdb.com/title/tt0757061/

◎豆瓣评分 7.4/10 (3880人评价)

◎豆瓣链接 https://movie.douban.com/subject/30430675/

◎片 长 63分钟

◎导 演 三池崇史 Takashi Miike (id:1054407)

◎编 剧 米克·加里斯 Mick Garris (id:1036906)

天愿大介 Daisuke Tengan (id:1299061)

岩井志麻子 Shimako Iwai (id:1038534)

◎演 员 比利·德拉戈 Billy Drago (id:1049756)

春海四方 Shih? Harumi (id:1371807)

美知枝 Michie (id:1368702)

儿岛雄一 Magy (id:1359861)

江口德子 Noriko Eguchi (id:1048572)

工藤夕贵 Youki Kudoh (id:1014169)

根岸季衣 Toshie Negishi (id:1008299)

山田豆 Mame Yamada (id:1024236)

木下邦家 Houka Kinoshita (id:1008390)

蜷川美穗 Miho Ninagawa (id:1041815)

野村凉乃 Suzuno Nomura (id:1399926)

岩井志麻子 Shimako Iwai (id:1038534)

饭田孝男 Takao Handa (id:1457249)

◎简 介

月夜行舟,幽谧鬼魅,美国作家克里斯托福(Billy Drago 比利?德拉高 饰)随船行驶于漂着浮尸的河中,去那禁忌小岛寻找他失散的爱人小桃(美知枝 饰)。他曾与小桃约定带她同回美国,然遍寻不见爱人踪影,却从一面容丑陋的妓女(工藤夕贵 饰)处得知小桃已经死亡的噩耗。

悲痛欲绝的克里斯托福请求妓女讲述小桃死亡的经过和原因,妓女则将这一切及自己的身世娓娓道来。他不断指出女人叙述中的虚假,一次次重复,逐渐逼近事实真相,也将他和终极恐怖进一步拉近……

◎幕后制作

集合13位顶尖惊慄电影导演联手炮制的短篇集《Masters of Horror》,邀来日本导演《鬼来电》、《Audition》三池祟史参与製作。这一集是由三池崇史 Takashi Miike 导演的短片集《恐怖大师》第1季第13集。

《Masters of Horror》绝对是每个惊慄电影迷梦寐以求...

  1. ##### MediaInfo ######

  2. General

  3. Unique ID : 135683806932754414509742405614419045726 (0x6613C02C2C428A2A254E1D6F3947ED5E)

  4. Complete name : 鬼妓回忆录.Mast[email protected]PTer.mkv

  5. Format : Matroska

  6. Format version : Version 2

  7. File size : 4.49 GiB

  8. Duration : 1 h 3 min

  9. Overall bit rate : 10.1 Mb/s

  10. Encoded date : UTC 2022-04-10 12:37:36

  11. Writing application : mkvmerge v42.0.0 ('Overtime') 64-bit

  12. Writing library : libebml v1.3.10 + libmatroska v1.5.2

  13. Video

  14. ID : 1

  15. Format : HEVC

  16. Format/Info : High Efficiency Video Coding

  17. Format profile : Main [email protected]@Main

  18. Codec ID : V_MPEGH/ISO/HEVC

  19. Duration : 1 h 3 min

  20. Bit rate : 9 489 kb/s

  21. Width : 1 920 pixels

  22. Height : 1 080 pixels

  23. Display aspect ratio : 16:9

  24. Frame rate mode : Constant

  25. Frame rate : 24.000 FPS

  26. Color space : YUV

  27. Chroma subsampling : 4:2:0

  28. Bit depth : 10 bits

  29. Bits/(Pixel*Frame) : 0.191

  30. Stream size : 4.21 GiB (94%)

  31. Writing library : x265 3.4+2-73ca1d7be377:[Windows][GCC 6.3.0][64 bit] 10bit

  32. Encoding settings : cpuid=533541111039 / frame-threads=3 / numa-pools=8 / wpp / no-pmode / no-pme / no-psnr / no-ssim / log-level=2 / input-csp=1 / input-res=1920x1080 / interlace=0 / total-frames=91440 / level-idc=0 / high-tier=1 / uhd-bd=0 / ref=3 / no-allow-non-conformance / no-repeat-headers / annexb / no-aud / no-hrd / info / hash=0 / no-temporal-layers / no-open-gop / min-keyint=24 / keyint=250 / gop-lookahead=0 / bframes=4 / b-adapt=2 / b-pyramid / bframe-bias=0 / rc-lookahead=20 / lookahead-slices=6 / NTMzNTQ=uuDQuD2mJt9fsCf / scenecut=40 / hist-scenecut=0 / radl=0 / no-splice / no-intra-refresh / ctu=64 / min-cu-size=8 / no-rect / no-amp / max-tu-size=32 / tu-inter-depth=1 / tu-intra-depth=1 / limit-tu=0 / rdoq-level=0 / dynamic-rd=0.00 / no-ssim-rd / signhide / no-tskip / nr-intra=0 / nr-inter=0 / no-constrained-intra / no-strong-intra-smoothing / max-merge=3 / limit-refs=1 / no-limit-modes / me=1 / subme=2 / merange=57 / temporal-mvp / no-frame-dup / no-hme / weightp / no-weightb / no-analyze-src-pics / deblock=0:0 / no-sao / no-sao-non-deblock / rd=3 / selective-sao=0 / early-skip / rskip / no-fast-intra / no-tskip-fast / no-cu-lossless / b-intra / no-splitrd-skip / rdpenalty=0 / psy-rd=2.00 / psy-rdoq=0.00 / no-rd-refine / no-lossless / cbqpoffs=0 / crqpoffs=0 / rc=crf / crf=19.0 / qcomp=0.80 / qpstep=4 / stats-write=0 / stats-read=0 / ipratio=1.40 / pbratio=1.30 / aq-mode=2 / aq-strength=1.00 / cutree / zone-count=0 / no-strict-cbr / qg-size=32 / no-rc-grain / qpmax=69 / qpmin=0 / no-const-vbv / sar=1 / overscan=0 / videoformat=5 / range=0 / colorprim=1 / transfer=1 / colormatrix=1 / chromaloc=0 / display-window=0 / cll=0,0 / min-luma=0 / max-luma=1023 / log2-max-poc-lsb=8 / vui-timing-info / vui-hrd-info / slices=1 / no-opt-qp-pps / no-opt-ref-list-length-pps / no-multi-pass-opt-rps / scenecut-bias=0.05 / hist-threshold=0.01 / no-opt-cu-delta-qp / no-aq-motion / no-hdr10 / no-hdr10-opt / no-dhdr10-opt / no-idr-recovery-sei / analysis-reuse-level=0 / analysis-save-reuse-level=0 / analysis-load-reuse-level=0 / scale-factor=0 / refine-intra=0 / refine-inter=0 / refine-mv=1 / refine-ctu-distortion=0 / no-limit-sao / ctu-info=0 / no-lowpass-dct / refine-analysis-type=0 / copy-pic=1 / max-ausize-factor=1.0 / no-dynamic-refine / no-single-sei / no-hevc-aq / no-svt / no-field / qp-adaptation-range=1.00 / no-scenecut-aware-qpconformance-window-offsets / right=0 / bottom=0 / NTMzNTQ= / decoder-max-rate=0

  33. Default : Yes

  34. Forced : No

  35. Color range : Limited

  36. Color primaries : BT.709

  37. Transfer characteristics : BT.709

  38. Matrix coefficients : BT.709

  39. Audio

  40. ID : 2

  41. Format : AC-3

  42. Format/Info : Audio Coding 3

  43. Commercial name : Dolby Digital

  44. Codec ID : A_AC3

  45. Duration : 1 h 3 min

  46. Bit rate mode : Constant

  47. Bit rate : 640 kb/s

  48. Channel(s) : 6 channels

  49. Channel layout : L R C LFE Ls Rs

  50. Sampling rate : 48.0 kHz

  51. Frame rate : 31.250 FPS (1536 SPF)

  52. Compression mode : Lossy

  53. Stream size : 291 MiB (6%)

  54. Language : English

  55. Service kind : Complete Main

  56. Default : Yes

  57. Forced : No

  58. Text #1

  59. ID : 3

  60. Format : UTF-8

  61. Codec ID : S_TEXT/UTF8

  62. Codec ID/Info : UTF-8 Plain Text

  63. Duration : 1 h 0 min

  64. Bit rate : 25 b/s

  65. Count of elements : 337

  66. Stream size : 11.5 KiB (0%)

  67. Language : Chinese

  68. Default : Yes

  69. Forced : No

  70. Text #2

  71. ID : 4

  72. Format : UTF-8

  73. Codec ID : S_TEXT/UTF8

  74. Codec ID/Info : UTF-8 Plain Text

  75. Duration : 1 h 0 min

  76. Bit rate : 25 b/s

  77. Count of elements : 337

  78. Stream size : 11.5 KiB (0%)

  79. Language : Chinese

  80. Default : No

  81. Forced : No


复制代码



文件下载


除非特别注明,本文『鬼妓回忆录[简体字幕].Masters.Of.Horror.Imprint.2006.BluRay.1080p.HEVC.10bit.MiniFHD-NewHD 4.49GB』来源于互联网机器人自动抓取,非本站原创。 浮游电影网不对本文拥有版权,如有侵犯,请联系邮箱:fuyouu#yandex.com[#换成@]投诉。我们会在15个工作日内删除。 但烦请转载时请标明出处:“本文转载于『浮游电影网』,原文地址:https://www.fuyouu.com/21274.html

评论吧骚年!

发表你的见解   

昵称*

E-mail*(建议输入,以便收到博主回复的提示邮件)

验证码*

您可以使用eMule或eMule Mod(Windows)、aMule(Win、Linux、Mac)等软件下载eD2k链接。。
eMule收藏集(.emulecollection)文件是您选中的所有链接的列表文件。eMule可以直接下载它们。
按住SHIFT键选择可以选中多个选择框。
可用文件名和大小选择器来选择文件。
文件名选择器帮您根据文件名称或后缀来选择文件。不分大小写。
符号使用:
和:空格( )、+
不包含:-
或:|
转义:一对英文引号("");
匹配开头:^
匹配结尾:$
例如:
选中所有名称中包含有“eMule”或“0.49c”字眼,但不包含有“exe”字眼的:emule|0.49c -exe
选中所有名称的开头是“eMule”,结尾是“0.49c”的:^emule 0.49c$
选中所有名称中带有“eMule 0.49c”的(必须是“eMule 0.49c”,中间没有别的字符,不能是“eMule fake 0.49c”),需要转义:"emule 0.49c"
大小选择器帮您根据文件大小选择文件。